Воздушные асы войны / War heroes of the skies (Нигел Левай) (Сезон: 1, 6 серий из 6) (2012, Документальный, авиация, военный, история, IPTVRip)

Ответить на тему
Статистика раздачи
Нет
   
 
Автор Сообщение

messer20080 ®

Стаж: 7 года 6 месяца

Сообщений: 1950

Создавать темы 13-Авг-2013 17:11

[Цитировать]

Воздушные асы войны / War heroes of the skies
Русское название: Воздушные асы войны
Оригинальное название: War heroes of the skies
Год выпуска: 2012
Жанр: Документальный, авиация, военный, история
Страна: Канада
Режиссер/Телекомпания: Нигел Левай / National Geographic
Продолжительность: 6 х 00:45:00
Перевод: Одноголосый закадровый, профессиональный
Описание: Сериал содержит фильмы о судьбах и подвигах прославленных пилотов Второй мировой войны.-Доп. информация: Релиз записан и подготовлен релиз группой: GeneralFilm
Список выпусков (серий):
01. Победоносный "Спитфайр" / Spitfire victory
02. Битва за Британию / Battle of Britain
03. «Красные хвосты» / Red Tails
04. Воздушный бой над Вьетнамом / War heroes of the skies: Vietnam Dogfight
05. Охотники за нацистами / War heroes of the skies: Nazi Hunters
06. Тотальная война / War heroes of the skies: Total War-Качество видео: IPTVRip
Видеокодек: Xvid
Битрейт видео: ~1804 kb/s
Размер кадра: 720x400
Аудиокодек: MP3
Битрейт аудио: 192 kb/s (2 канала, stereo) CBR

MI

General
Complete name : D:\Vozdushnye.asy.vojny.XviD.IPTVRip.by.GeneralFilm.avi\01.Vozdushnye.asy.vojny.Spitfayr.2012.XviD.IPTVRip.by.GeneralFilm.avi
Format : AVI
Format/Info : Audio Video Interleave
File size : 644 MiB
Duration : 44mn 59s
Overall bit rate : 2 003 Kbps
Writing application : VirtualDubModRus 1.5.10.2 (build 2542/release)
Writing library : VirtualDubMod build 2542/release
Video
ID : 0
Format : MPEG-4 Visual
Format profile : Advanced Simple@L5
Format settings, BVOP : Yes
Format settings, QPel : No
Format settings, GMC : No warppoints
Format settings, Matrix : Default (H.263)
Codec ID : XVID
Codec ID/Hint : XviD
Duration : 44mn 59s
Bit rate : 1 801 Kbps
Width : 720 pixels
Height : 400 pixels
Display aspect ratio : 16:9
Frame rate : 25.000 fps
Color space : YUV
Chroma subsampling : 4:2:0
Bit depth : 8 bits
Scan type : Progressive
Compression mode : Lossy
Bits/(Pixel*Frame) : 0.250
Stream size : 580 MiB (90%)
Writing library : XviD 1.2.1 (UTC 2008-12-04)
Audio
ID : 1
Format : MPEG Audio
Format version : Version 1
Format profile : Layer 3
Codec ID : 55
Codec ID/Hint : MP3
Duration : 44mn 59s
Bit rate mode : Constant
Bit rate : 192 Kbps
Channel(s) : 2 channels
Sampling rate : 48.0 KHz
Compression mode : Lossy
Stream size : 61.8 MiB (10%)
Alignment : Aligned on interleaves
Interleave, duration : 40 ms (1.00 video frame)
Interleave, preload duration : 504 ms
Writing library : LAME3.99r
Encoding settings : -m s -V 4 -q 2 -lowpass 18.6 -b 192
-[kp]http://www.kinopoisk.ru/film/712914/[/kp] [imdb]http://www.imdb.com/title/tt2247314/?ref_=fn_al_tt_...423658103[/imdb]-


Последний раз редактировалось: messer20080 (2014-05-24 15:15), всего редактировалось 1 раз
[Профиль] [ЛС]

Создавать темы 18-Апр-2014 15:27 (спустя 8 месяца 4 дня)

Топик был перенесен из форума Документальные фильмы / Передачи в форум National Geographic

messer20080
 
Показать сообщения:    
Ответить на тему

Текущее время: 23-Сен 02:51

Часовой пояс: UTC + 3



Вы не можете начинать темы
Вы не можете отвечать на сообщения
Вы не можете редактировать свои сообщения
Вы не можете удалять свои сообщения
Вы не можете голосовать в опросах
Вы не можете прикреплять файлы к сообщениям
Вы не можете скачивать файлы