Питер Пэн. Возвращение в Нетландию / Peter Pan: Return To Neverland (Робин Бадд) (2002, Рисованная анимация, США, Канада, Австралия) DVD5

Ответить на тему
 
Автор Сообщение

messer20080 ®

Пол: Мужской

Стаж: 7 года 4 месяца

Сообщений: 1960

Создавать темы 21-Авг-2013 09:58

[Цитировать]

Питер Пэн. Возвращение в Нетландию / Peter Pan: Return To Neverland
Год выпуска: 2002
Страна: США, Канада, Австралия
Жанр: Рисованная анимация
Русское название: Питер Пэн. Возвращение в Нетландию
Оригинальное название: Peter Pan: Return To Neverland
Описание:
Потрясающий старина Питер, вечный мальчишка, который умеет летать и никогда не станет взрослым, возвращается! Прошли годы, его лучшая подруга Вэнди выросла, превратившись из милой девочки в красивую женщину, у нее самой растет маленькая дочка Джейн. Но магия былого путешествия в великолепную Нетландию, обитель вечно юных героев, свирепых корсаров и крохотных фей, не забыта. Сказка оживает вновь, когда коварный предводитель пиратов Капитан Крюк похищает Джейн и уносит ее в Волшебную страну. А это значит, что верному Питеру Пэну снова придется сразиться со злом и разрушить его черные планы..
Режиссер: Робин Бадд
В ролях/персонажи: Харриет Оуэн (Jane / Young Wendy), Блэйн Уивер (Peter Pan), Кори Бертон (Captain Hook), Джефф Беннетт (Smee / Pirates), Кэт Сауси (Wendy Darling), Эндрю МакДана (Danny), Роджер Рис (Edward), Спенсер Бреслин (Cubby), Брэдли Пирс (Nibs), Куинн Бесвик (Slightly), Аарон Спанн (Twins), Дэн Кастелланета (Additional Voice)-Доп. информация:
Удалены болгарская, румынская озвучки.
[kp]http://www.kinopoisk.ru/film/2416/[/kp] [imdb]http://www.imdb.com/title/tt0280030/[/imdb]
Продолжительность: 01:09:37
Перевод: Полный дубляж, вкл. песни
Вид субтитров: Вшитые, отключаемые
Язык субтитров:
Русский, английский, польский, украинский, латвийский, литовский, эстонский
Дополнительные материалы:
-Удаленные сцены
-Игры и развлечения-За кулисами Диснея:
-Три короткометражных мультфильма, знакомящие с феями Диснея.-

MediaInfo

Общее
Полное имя : D:\Return_to_Neverland\VIDEO_TS\VTS_01_2.VOB
Формат : MPEG-PS
Размер файла : 1024 Мбайт
Продолжительность : 19 м.
Режим общего битрейта : Переменный
Общий поток : 7273 Кбит/сек
Видео
Идентификатор : 224 (0xE0)
Формат : MPEG Video
Версия формата : Version 2
Профиль формата : Main@Main
Параметр BVOP формата : Да
Параметр матрицы формата : Выборочная
Продолжительность : 19 м.
Вид битрейта : Переменный
Битрейт : 5976 Кбит/сек
Максимальный битрейт : 9800 Кбит/сек
Ширина : 720 пикселей
Высота : 576 пикселей
Соотношение сторон : 16:9
Частота кадров : 25,000 кадров/сек
Стандарт вещания : PAL
Цветовое пространство : YUV
Субдискретизация насыщенности : 4:2:0
Битовая глубина : 8 бит
Тип развёртки : Прогрессивная
Порядок развёртки : Верхнее поле первое
Метод сжатия : С потерями
Бит/(Пиксели*Кадры) : 0.576
Размер потока : 841 Мбайт (82%)
Аудио #1
Идентификатор : 189 (0xBD)-128 (0x80)
Формат : AC-3
Формат/Информация : Audio Coding 3
Расширение режима : CM (complete main)
Параметр Endianness формата : Big
Режим смешивания : DVD-Video
Продолжительность : 19 м.
Вид битрейта : Постоянный
Битрейт : 384 Кбит/сек
Каналы : 6 каналов
Расположение каналов : Front: L C R, Side: L R, LFE
Частота : 48,0 КГц
Битовая глубина : 16 бит
Метод сжатия : С потерями
Задержка видео : -520 мс.
Размер потока : 54,1 Мбайт (5%)
Аудио #2
Идентификатор : 189 (0xBD)-129 (0x81)
Формат : AC-3
Формат/Информация : Audio Coding 3
Расширение режима : CM (complete main)
Параметр Endianness формата : Big
Режим смешивания : DVD-Video
Продолжительность : 19 м.
Вид битрейта : Постоянный
Битрейт : 384 Кбит/сек
Каналы : 6 каналов
Расположение каналов : Front: L C R, Side: L R, LFE
Частота : 48,0 КГц
Битовая глубина : 16 бит
Метод сжатия : С потерями
Задержка видео : -520 мс.
Размер потока : 54,1 Мбайт (5%)
Аудио #3
Идентификатор : 189 (0xBD)-130 (0x82)
Формат : AC-3
Формат/Информация : Audio Coding 3
Расширение режима : CM (complete main)
Параметр Endianness формата : Big
Режим смешивания : DVD-Video
Продолжительность : 19 м.
Вид битрейта : Постоянный
Битрейт : 384 Кбит/сек
Каналы : 6 каналов
Расположение каналов : Front: L C R, Side: L R, LFE
Частота : 48,0 КГц
Битовая глубина : 16 бит
Метод сжатия : С потерями
Задержка видео : -520 мс.
Размер потока : 54,1 Мбайт (5%)
Текст #1
Идентификатор : 189 (0xBD)-32 (0x20)
Формат : RLE
Формат/Информация : Run-length encoding
Режим смешивания : DVD-Video
Текст #2
Идентификатор : 189 (0xBD)-33 (0x21)
Формат : RLE
Формат/Информация : Run-length encoding
Режим смешивания : DVD-Video
Текст #3
Идентификатор : 189 (0xBD)-34 (0x22)
Формат : RLE
Формат/Информация : Run-length encoding
Режим смешивания : DVD-Video
Текст #4
Идентификатор : 189 (0xBD)-35 (0x23)
Формат : RLE
Формат/Информация : Run-length encoding
Режим смешивания : DVD-Video
Текст #5
Идентификатор : 189 (0xBD)-38 (0x26)
Формат : RLE
Формат/Информация : Run-length encoding
Режим смешивания : DVD-Video
Текст #6
Идентификатор : 189 (0xBD)-39 (0x27)
Формат : RLE
Формат/Информация : Run-length encoding
Режим смешивания : DVD-Video
Текст #7
Идентификатор : 189 (0xBD)-40 (0x28)
Формат : RLE
Формат/Информация : Run-length encoding
Режим смешивания : DVD-Video
Текст #8
Идентификатор : 189 (0xBD)-41 (0x29)
Формат : RLE
Формат/Информация : Run-length encoding
Режим смешивания : DVD-Video

DVDInfo

Title: Return_to_Neverland
Size: 4.33 Gb ( 4 538 672,00 KBytes ) - DVD-5
Enabled regions: 1, 2, 3, 4, 5, 6, 7, 8
VTS_01 :
Play Length: 01:09:37+00:00:00
Video: PAL 16:9 (720x576) VBR, Auto Letterboxed
Audio:
English (Dolby AC3, 6 ch)
Polish (Dolby AC3, 6 ch)
Russian (Dolby AC3, 6 ch)
Subtitles:
English
English
Polish
Russian
Bulgarian
Romanian
Ukrainian
Latvian
Lithuanian
Estonian
Polish
Russian
Bulgarian
Romanian
VTS_02 :
Play Length: 00:00:03
Video: PAL 16:9 (720x576) VBR, Auto Pan&Scan
Audio:
Not specified (Dolby AC3, 2 ch)
Subtitles:
Not specified
VTS_03 :
Play Length: 00:00:00+{00:00:00}+{00:00:00}+{00:00:00}+{00:00:00}+{00:00:00}+{00:00:00}+{00:00:00}+{00:00:00}+{00:00:00}
Video: PAL 16:9 (720x576) VBR, Auto Pan&Scan
VTS_04 :
Play Length: 00:00:00
Video: PAL 16:9 (720x576) VBR, Auto Letterboxed
VTS_05 :
Play Length: 00:00:15+{00:00:00}+00:00:00+{00:00:00}+{00:00:00}
Video: PAL 16:9 (720x576) VBR, Auto Pan&Scan
Audio:
Not specified (Dolby AC3, 6 ch)
Subtitles:
Not specified
VTS_06 :
Play Length: 00:00:00+00:00:16+00:00:00
Video: PAL 16:9 (720x576) VBR, Auto Letterboxed
Audio:
English (Dolby AC3, 6 ch)
Subtitles:
Polish
Russian
VTS_07 :
Play Length: 00:00:00+00:00:00+00:00:00+{00:00:00}+{00:00:00}+{00:00:00}+{00:00:00}+{00:00:00}
Video: PAL 16:9 (720x576) VBR, Auto Letterboxed
Audio:
Not specified (Dolby AC3, 2 ch)
VTS_08 :
Play Length: 00:00:00+{00:00:00}+{00:00:00}+{00:00:00}+{00:00:00}+{00:00:00}+{00:00:00}+{00:00:00}
Video: PAL 4:3 (720x576) VBR
VTS_09 :
Play Length: 00:00:07+00:00:00+00:00:07+00:00:07+{00:00:00}+00:00:00+00:00:00+{00:00:00}+{00:00:00}+{00:00:00}+00:00:07+00:00:00+00:00:07+00:00:07+{00:00:00}+00:00:07+00:00:00+00:00:07+00:00:07+{00:00:00}
Video: PAL 16:9 (720x576) VBR, Auto Pan&Scan
Audio:
Not specified (Dolby AC3, 2 ch)
VTS_10 :
Play Length: 00:04:45+00:00:00+00:02:05+00:01:47
Video: PAL 4:3 (720x576) VBR
Audio:
English (Dolby AC3, 2 ch)
Subtitles:
Polish
Russian
Bulgarian
Romanian
VTS_11 :
Play Length: 00:01:33+00:01:33+00:01:33+00:04:38+00:04:38
Video: PAL 4:3 (720x576) VBR
Audio:
English (Dolby AC3, 2 ch)
Polish (Dolby AC3, 2 ch)
Russian (Dolby AC3, 2 ch)
Subtitles:
Polish
Russian
Bulgarian
Romanian
VTS_12 :
Play Length: 00:00:53
Video: PAL 4:3 (720x576) VBR
Audio:
English (Dolby AC3, 2 ch)
Subtitles:
Polish
Video: PAL 16:9 (720x576) VBR, Auto Pan&Scan
Audio:
Not specified (Dolby AC3, 2 ch)
Not specified (Dolby AC3, 2 ch)
Not specified (Dolby AC3, 2 ch)
Видеокодек: MPEG-2
Битрейт видео: ~5976 Kbps
Размер кадра: PAL 16:9 (720x576) VBR
Качество видео: DVD5
Аудиокодек: AC3
Битрейт аудио: 384kbps
Аудио:
Аудио #1: Английский AC-3, 48.0 KHz, 6 ch, 384 Kbps, CBR
Аудио #2: Польский AC-3, 48.0 KHz, 6 ch, 384 Kbps, CBR
Аудио #3: Русский AC-3, 48.0 KHz, 6 ch, 384 Kbps, CBR

Скриншоты меню DVD

Скриншоты: [/url][url=http://trekker.avit.net.ua/pictures/4492ec2cf0070b3ce5804a65b5557d62.jpg]


Последний раз редактировалось: messer20080 (2014-03-07 18:05), всего редактировалось 1 раз
[Профиль] [ЛС]

messer20080 ®

Пол: Мужской

Стаж: 7 года 4 месяца

Сообщений: 1960

Создавать темы 05-Мар-2014 15:11 (спустя 6 месяца 15 дня)

[Цитировать]

Сделал раздачу мултитрекерной.
[Профиль] [ЛС]
Показать сообщения:    
Ответить на тему

Текущее время: 13-Июл 14:25

Часовой пояс: UTC + 3



Вы не можете начинать темы
Вы не можете отвечать на сообщения
Вы не можете редактировать свои сообщения
Вы не можете удалять свои сообщения
Вы не можете голосовать в опросах
Вы не можете прикреплять файлы к сообщениям
Вы не можете скачивать файлы