Мерзлая земля / The Frozen Ground (Скотт Уолкер)(2013 Триллер, Криминал) WEB-DLRip [Line]

Ответить на тему
 
Автор Сообщение

messer20080 ®

Пол: Мужской

Стаж: 7 года 4 месяца

Сообщений: 1960

Создавать темы 05-Сен-2013 01:06

[Цитировать]

Мерзлая земля / The Frozen Ground (2013) WEB-DLRip
Русское название: Мерзлая земля
Оригинальное название: The Frozen Ground
Год выпуска: 2013
Производство: США / Emmett/Furla Films, Amber Entertainment, Sakonnet Capital
Жанр: Триллер, Криминал
Перевод: Дублированный [Чистый звук]
Субтитры: Отсутвуют
Дата мировой премьеры: 11 июля 2013
Дата российской премьеры: 25 июля 2013, «Парадиз»
Дата выхода DVD релиза: 8 октября 2013, «Парадиз / Активижен»
Режиссер: Скотт Уолкер
Продюсер: Фифти Сент, Ремингтон Чейз, Рэндолл Эмметт
Актеры: Николас Кейдж, Джон Кьюсак, Фифти Сент, Ванесса Энн Хадженс, Дин Норрис, Кэтрин ЛаНаса, Рада Митчелл
Описание фильма:
Все были уверены, что Роберт Хансен — приличный семьянин, владелец пекарни и славный охотник. Никто не подозревал, что на самом деле он — безжалостный маньяк, который похитил и убил более двадцати женщин. И только 17-летней Синди Полсон удалось сбежать от убийцы. Она наводит на след маньяка полицейского, который начинает опасное расследование. Ему никто не верит: Хансен — слишком приличный человек для такого обвинения… Но упорный коп знает свое дело и должен дойти до конца…
-[kp]http://www.kinopoisk.ru/film/601483/[/kp] [imdb]http://www.imdb.com/title/tt2005374/[/imdb]-Продолжительность: 01:45:33
Качество видео: WEB-DLRip [рип с WEB-DL 1080p]
Видеокодек: Xvid
Битрейт видео: ~1992 kb/s
Размер кадра: 720x304
Аудиокодек: AC3 5.1
Битрейт аудио#1: 384 kb/s (Русский)
Битрейт аудио#2: 384 kb/s (Английский)

MediaInfo

C:\Users\messer20080\Pictures\Clip_Merzlaja.zemlja.2013.D.WEBDLRip.2100MB.nnm-club[(033552)00-29-29].AVI
General
Complete name : C:\Users\messer20080\Pictures\Merzlaja.zemlja.2013.D.WEBDLRip.2100MB[(033552)00-29-29].AVI
Format : AVI
Format/Info : Audio Video Interleave
File size : 20.1 MiB
Duration : 1mn 28s
Overall bit rate : 1 912 Kbps
Video #0
ID : 0
Format : MPEG-4 Visual
Format profile : Advanced Simple@L5
Format settings, BVOP : 1
Format settings, QPel : No
Format settings, GMC : No warppoints
Format settings, Matrix : Default (MPEG)
Codec ID : XVID
Codec ID/Hint : XviD
Duration : 1mn 28s
Bit rate : 1 523 Kbps
Width : 720 pixels
Height : 304 pixels
Display aspect ratio : 2.35:1
Frame rate : 23.976 fps
Color space : YUV
Chroma subsampling : 4:2:0
Bit depth : 8 bits
Scan type : Progressive
Compression mode : Lossy
Bits/(Pixel*Frame) : 0.290
Stream size : 16.0 MiB (79%)
Writing library : XviD 73
Audio #1
ID : 1
Format : AC-3
Format/Info : Audio Coding 3
Mode extension : CM (complete main)
Format settings, Endianness : Big
Codec ID : 2000
Duration : 1mn 28s
Bit rate mode : Constant
Bit rate : 384 Kbps
Channel(s) : 6 channels
Channel positions : Front: L C R, Side: L R, LFE
Sampling rate : 48.0 KHz
Bit depth : 16 bits
Compression mode : Lossy
Delay relative to video : 10ms
Stream size : 4.05 MiB (20%)
Alignment : Split accross interleaves
Interleave, duration : 42 ms (1.00 video frame)
-


Последний раз редактировалось: messer20080 (2013-10-30 15:05), всего редактировалось 1 раз
[Профиль] [ЛС]

donald

Пол: Мужской

Стаж: 7 года 1 месяц

Сообщений: 174

Создавать темы 05-Сен-2013 09:54 (спустя 8 часа)

[Цитировать]

Мне понравился.
[Профиль] [ЛС]

messer20080 ®

Пол: Мужской

Стаж: 7 года 4 месяца

Сообщений: 1960

Создавать темы 05-Сен-2013 10:12 (спустя 17 минуты)

[Цитировать]

donald, Мне тоже, но сцена с обмочившейся девушкой на мой взгляд излишне натуралистична, попахивает НТВшницкой чернухой и тут лишняя.
[Профиль] [ЛС]

donald

Пол: Мужской

Стаж: 7 года 1 месяц

Сообщений: 174

Создавать темы 05-Сен-2013 10:38 (спустя 25 минуты)

[Цитировать]

но сцена с обмочившейся девушкой на мой взгляд излишне натуралистична, попахивает НТВшницкой чернухой и тут лишняя
Не думаю, что эти вещи между собой связаны. Куда ей еще мочиться, если она прикована (а может и от страха..)?! Вполне реалистично!
[Профиль] [ЛС]

--Impulse--

Пол: Мужской

Стаж: 7 года 3 месяца

Сообщений: 19

Создавать темы 05-Сен-2013 11:21 (спустя 42 минуты)

[Цитировать]

messer20080, дай скорости
[Профиль] [ЛС]

messer20080 ®

Пол: Мужской

Стаж: 7 года 4 месяца

Сообщений: 1960

Создавать темы 05-Сен-2013 11:53 (спустя 32 минуты)

[Цитировать]

donald, Поверь на слово, в жизни все это выглядит противно, вызывает очень мало сочувствия к потерпевшему - только брезгливость.
[Профиль] [ЛС]

messer20080 ®

Пол: Мужской

Стаж: 7 года 4 месяца

Сообщений: 1960

Создавать темы 05-Сен-2013 11:54 (спустя 31 секунда)

[Цитировать]

--Impulse--, шо мог то включил.
[Профиль] [ЛС]

donald

Пол: Мужской

Стаж: 7 года 1 месяц

Сообщений: 174

Создавать темы 05-Сен-2013 18:19 (спустя 6 часа)

[Цитировать]

donald, Поверь на слово, в жизни все это выглядит противно, вызывает очень мало сочувствия к потерпевшему - только брезгливость.
Это как раз и понятно. Другое дело маньяк должен был как мне кажется отреагировать как-то иначе, агрессивнее что-ли, а он уж слишком спокойно к этому отнесся.. Хотя этот эпизод довольно короткий, поэтому зритель не успел ничего испытать.
[Профиль] [ЛС]

messer20080 ®

Пол: Мужской

Стаж: 7 года 4 месяца

Сообщений: 1960

Создавать темы 05-Сен-2013 19:24 (спустя 1 час 5 минуты)

[Цитировать]

Агрессия бы была, если бы был зритель для этой агресии. Этож маньяк, а не дебил)))).
[Профиль] [ЛС]
Показать сообщения:    
Ответить на тему

Текущее время: 04-Июл 14:33

Часовой пояс: UTC + 3



Вы не можете начинать темы
Вы не можете отвечать на сообщения
Вы не можете редактировать свои сообщения
Вы не можете удалять свои сообщения
Вы не можете голосовать в опросах
Вы не можете прикреплять файлы к сообщениям
Вы не можете скачивать файлы