Россия молодая (Илья Гурин) [1982, исторический, DVDRip-AVC]

Ответить на тему
 
Автор Сообщение

messer20080 ®

Пол: Мужской

Стаж: 7 года 3 месяца

Сообщений: 1960

Создавать темы 20-Сен-2013 13:46

[Цитировать]

Россия молодая
Жанр: исторический
Год выпуска: 1982
Продолжительность: 10:16:00 (9 серий)
Режиссёр: Илья Гурин
В ролях:
Борис Невзоров, Александр Фатюшин, Степан Старчиков, Александра Яковлева (Аасмяэ), Дмитрий Золотухин, Николай Иванов, Иван Лапиков, Александр Борисов, Татьяна Кондырева (Чернядьева), Сергей Плотников, Николай Олялин, Евдокия Алексеева, Александр Макарцев, Сергей Паршин, Александр Вдовин, Владислав Ракитянский, Владимир Кашпур, Анатолий Баранцев, Елена Глебова, Михаил Кузнецов, Владислав Стржельчик, Юрий Демич, Борис Иванов, Тыну Аав, Николай Крюков, Олег Борисов, Всеволод Кузнецов, Алексей Миронов, Сергей Сазонтьев, Райво Трасс, Георгий Назаренко, Леонид Харитонов, Вадим Вильский, Михаил Долгинин, Леон Кукулян, Евгений Марков, Рейно Арен, Геннадий Фролов, Бруно Фрейндлих, Юрий Саранцев, К. Северный, Федор Валиков, Михаил Бочаров, Тыну Саар, Эдуард Марцевич, Аксель Орав
Описание:
«Россиия молодая» (1981-1982) - 9-серийный телевизионный художественный фильм об эпохе Петра I. Действие фильма происходит на Русском Севере. В центре сюжета судьбы трёх человек: капитана-командора Сильвестра Иевлева, поручика таможенного войска Афанасия Крыкова и кормщика-помора Ивана Рябова. Иван Рябов - реальный исторический персонаж. В 1701 вместе с церковным служкой Дмитрием Борисовым совершил подвиг, в качестве кормщика под видом предателей посадив головной корабль шведской эскадры на мель под огонь береговой батареи.
Фильм является точной экранизацией почти всего одноимённого романа Юрия Германа, за исключением последних глав.-[kp]http://www.kinopoisk.ru/film/81433/[/kp] -

Список серий

1.Морского дела старатели
2.Мужание
3.Беда за бедой
4.Страшней, чем шторм
5.Крепости быть!
6.Здравствуй, кормщик!
7.Нашествие
8.Правда против кривды
9.Ветер Балтики

MediaInfo

General
Unique ID : 232707426949407071472520228495929782149 (0xAF11D1F799717B4EA745F0AC6BAE2F85)
Complete name : D:\Россия молодая\1.mkv
Format : Matroska
Format version : Version 2
File size : 962 MiB
Duration : 1h 6mn
Overall bit rate : 2 022 Kbps
Encoded date : UTC 2012-02-03 17:47:14
Writing application : mkvmerge v4.9.1 ('Ich will') built on Jul 11 2011 23:53:15
Writing library : libebml v1.2.1 + libmatroska v1.1.1
Video
ID : 1
Format : AVC
Format/Info : Advanced Video Codec
Format profile : High@L4.1
Format settings, CABAC : Yes
Format settings, ReFrames : 3 frames
Codec ID : V_MPEG4/ISO/AVC
Duration : 1h 6mn
Bit rate : 1 636 Kbps
Width : 716 pixels
Height : 572 pixels
Display aspect ratio : 4:3
Frame rate mode : Constant
Frame rate : 25.000 fps
Color space : YUV
Chroma subsampling : 4:2:0
Bit depth : 8 bits
Scan type : Progressive
Bits/(Pixel*Frame) : 0.160
Stream size : 760 MiB (79%)
Writing library : x264 core 116 r2074 2641b9e
Encoding settings : cabac=1 / ref=3 / deblock=1:-2:-1 / analyse=0x3:0x113 / me=hex / subme=7 / psy=1 / psy_rd=1.00:0.10 / mixed_ref=1 / me_range=16 / chroma_me=1 / trellis=1 / 8x8dct=1 / cqm=0 / deadzone=21,11 / fast_pskip=1 / chroma_qp_offset=-3 / threads=3 / sliced_threads=0 / nr=0 / decimate=1 / interlaced=0 / bluray_compat=0 / constrained_intra=0 / bframes=3 / b_pyramid=0 / b_adapt=1 / b_bias=0 / direct=1 / weightb=1 / open_gop=0 / weightp=2 / keyint=250 / keyint_min=25 / scenecut=40 / intra_refresh=0 / rc_lookahead=40 / rc=2pass / mbtree=1 / bitrate=1636 / ratetol=1.0 / qcomp=0.60 / qpmin=10 / qpmax=51 / qpstep=4 / cplxblur=20.0 / qblur=0.5 / vbv_maxrate=50000 / vbv_bufsize=50000 / nal_hrd=none / ip_ratio=1.40 / aq=1:1.00
Default : Yes
Forced : No
Audio
ID : 2
Format : AC-3
Format/Info : Audio Coding 3
Mode extension : CM (complete main)
Format settings, Endianness : Big
Codec ID : A_AC3
Duration : 1h 6mn
Bit rate mode : Constant
Bit rate : 384 Kbps
Channel count : 6 channels
Channel positions : Front: L C R, Side: L R, LFE
Sampling rate : 48.0 KHz
Bit depth : 16 bits
Compression mode : Lossy
Stream size : 183 MiB (19%)
Default : Yes
Forced : No
-Качество видео: DVDRip-AVC
Формат видео: MKV
Видео: 716x572@762x572 (1,33:1), 25 fps, AVC (H.264) ~1636 kbps avg, 0.160 bit/pixel
Аудио: 48 kHz, AC3 Dolby Digital, 3/2 (L,C,R,l,r) LFE ch, ~384 kbps-
[Профиль] [ЛС]
Показать сообщения:    
Ответить на тему

Текущее время: 02-Июл 11:32

Часовой пояс: UTC + 3



Вы не можете начинать темы
Вы не можете отвечать на сообщения
Вы не можете редактировать свои сообщения
Вы не можете удалять свои сообщения
Вы не можете голосовать в опросах
Вы не можете прикреплять файлы к сообщениям
Вы не можете скачивать файлы