Географ глобус пропил (Александр Велединский, драма) (2013) WEBRip [H.264]

Ответить на тему
 
Автор Сообщение

messer20080 ®

Пол: Мужской

Стаж: 7 года 4 месяца

Сообщений: 1960

Создавать темы 09-Ноя-2013 16:04

[Цитировать]

Географ глобус пропил
Год выпуска: 2013
Производство: Россия / Красная стрела, Мармот-фильм
Жанр: Драма
Перевод: Не требуется [лицензия]
Язык: Русский
Субтитры: Отсутствуют
Дата мировой премьеры: 26 июля 2013
Дата российской премьеры: 7 ноября 2013, «Наше Кино»
Дата выхода DVD релиза: 16 января 2014, «CP Дистрибуция»
Режиссер: Александр Велединский
Продюсер: Вадим Горяинов, Леонид Лебедев, Валерий Тодоровский
Актеры: Константин Хабенский, Елена Лядова, Александр Робак, Евгения Брик, Анна Уколова, Евгения Крегжде, Агриппина Стеклова, Максим Лагашкин, Анфиса Черных, Андрей Прытков
Описание фильма:
Молодой биолог Виктор Служкин от безденежья идет работать учителем географии в обычную пермскую школу. Он борется, а потом и дружит с учениками, конфликтует с завучем, ведет девятиклассников в поход — сплавляться по реке. Еще он пьет с друзьями вино, пытается ужиться с женой и водит в детский сад маленькую дочку. Он просто живет…

[kp]http://www.kinopoisk.ru/film/653696/[/kp] [imdb]http://www.imdb.com/title/tt3155604/[/imdb]
Продолжительность: 01:59:39
Качество видео: WEBRip
Формат: MKV
Видеокодек: AVC
Битрейт видео: ~1953 kb/s
Размер кадра: 1024 x 432
Частота кадра: 23.976 fps
Аудио : AC-3 448 Kbps 48.0 KHz 2 channels

MediaInfo

D:\Географ глобус пропил (2013)_WEBRip.avit.mkv
General
Unique ID : 168348648403719580577546155723716462494 (0x7EA6C532C2870C1E037BA147C20E879E)
Complete name : D:\Географ глобус пропил (2013)_WEBRip.avit.mkv
Format : Matroska
Format version : Version 2
File size : 2.05 GiB
Duration : 1h 59mn
Overall bit rate mode : Variable
Overall bit rate : 2 449 Kbps
Writing application : Lavf51.12.1
Writing library : Lavf51.12.1
Video #1
ID : 1
Format : AVC
Format/Info : Advanced Video Codec
Format profile : Baseline@L3.1
Format settings, CABAC : No
Format settings, ReFrames : 1 frame
Format settings, GOP : M=1, N=12
Codec ID : V_MPEG4/ISO/AVC
Duration : 1h 59mn
Bit rate mode : Variable
Bit rate : 1 953 Kbps
Maximum bit rate : 3 000 Kbps
Width : 1 024 pixels
Height : 432 pixels
Display aspect ratio : 2.40:1
Frame rate mode : Constant
Frame rate : 23.976 fps
Original frame rate : 24.000 fps
Color space : YUV
Chroma subsampling : 4:2:0
Bit depth : 8 bits
Scan type : Progressive
Bits/(Pixel*Frame) : 0.184
Stream size : 1.63 GiB (80%)
Default : Yes
Forced : No
Audio #2
ID : 2
Format : AC-3
Format/Info : Audio Coding 3
Mode extension : CM (complete main)
Format settings, Endianness : Big
Codec ID : A_AC3
Duration : 1h 59mn
Bit rate mode : Constant
Bit rate : 448 Kbps
Channel count : 2 channels
Channel positions : Front: L R
Sampling rate : 48.0 KHz
Bit depth : 16 bits
Compression mode : Lossy
Stream size : 383 MiB (18%)
Default : Yes
Forced : No
Скриншоты:-

Скриншоты



Последний раз редактировалось: messer20080 (2014-02-17 12:17), всего редактировалось 5 раз(а)
[Профиль] [ЛС]

Создавать темы 09-Ноя-2013 16:21 (спустя 16 минуты)

Топик был перенесен из форума Отечественное кино в форум Отечественное кино

messer20080
 

donald

Пол: Мужской

Стаж: 7 года 1 месяц

Сообщений: 174

Создавать темы 09-Ноя-2013 17:37 (спустя 1 час 32 минуты)

[Цитировать]

messer20080, Спасибо! Посмотрим.
[Профиль] [ЛС]

messer20080 ®

Пол: Мужской

Стаж: 7 года 4 месяца

Сообщений: 1960

Создавать темы 09-Ноя-2013 17:46 (спустя 9 минуты)

[Цитировать]

donald, Прям вижу себя, когда в школе работал)))
Только не пили так, а за...нки, малолетки лезли со своей любовью...
Могут же сделать, когда захотят.
[Профиль] [ЛС]

bestcooki

Пол: Мужской

Стаж: 6 года 8 месяца

Сообщений: 96

Создавать темы 09-Ноя-2013 18:27 (спустя 41 минута)

[Цитировать]

messer20080, Спасибо ! Фильм нужно смотреть...
[Профиль] [ЛС]
Показать сообщения:    
Ответить на тему

Текущее время: 05-Июл 10:53

Часовой пояс: UTC + 3



Вы не можете начинать темы
Вы не можете отвечать на сообщения
Вы не можете редактировать свои сообщения
Вы не можете удалять свои сообщения
Вы не можете голосовать в опросах
Вы не можете прикреплять файлы к сообщениям
Вы не можете скачивать файлы