Доктор Кто: День Доктора / Doctor Who: The Day of the Doctor (Ник Харран) [2013 г., Фантастика, приключения, HDTVRip]

Ответить на тему
 
Автор Сообщение

messer20080 ®

Пол: Мужской

Стаж: 7 года 4 месяца

Сообщений: 1960

Создавать темы 25-Ноя-2013 12:14

[Цитировать]

Доктор Кто: День Доктора / Doctor Who: The Day of the Doctor
Год выпуска: 2013
Страна: Великобритания, British Broadcasting Corporation (BBC)
Жанр: Фантастика, приключения
Продолжительность: 01:15:46
Перевод: Профессиональный (многоголосый, закадровый)(ВГТРК)
Режиссер: Ник Харран
В ролях: Мэтт Смит, Дженна Коулман, Билли Пайпер, Дэвид Теннант, Джон Хёрт, Джоанна Пейдж, Джемма Редгрейв, Ингрид Оливер, Николас Бриггс, Кен Боунс, Орландо Джеймс
Описание: В 2013 году что-то ужасное пробуждается в Национальной галерее Лондона; в 1562 году смертельный заговор зреет в елизаветинской Англии; а где-то в космосе многовековая битва достигает сокрушительного заключения.
Субтитры: Русские, английские (вшитые, отключаемые)-[kp]http://www.kinopoisk.ru/film/807086/[/kp] [imdb]http://www.imdb.com/title/tt2779318/[/imdb] -Качество: HDTVRip
Формат: MKV
Видео кодек: AVC
Аудио кодек: AC3
Видео: 1280 x 720/ ~3374 kb/s /25.000 fps
Аудио (русский): Аудио: AC-3, 2.0ch., 192 kb/s
Аудио (английский): AC-3, 6.0ch., 384 kb/s

MediaInfo

General
Unique ID : 190516856231934415178656176726553107729 (0x8F54363AABF89E1599C5692C9EFB9D11)
Complete name : D:\День Доктора - The Day of the Doctor (2013)_720.avit-trecker.mkv
Format : Matroska
Format version : Version 4 / Version 2
File size : 2.15 GiB
Duration : 1h 16mn
Overall bit rate : 4 030 Kbps
Movie name : ReJIiZ MediaClub by BenderBEST
Encoded date : UTC 2013-11-25 09:29:30
Writing application : mkvmerge v6.5.0 ('Isn't she lovely') built on Oct 20 2013 12:50:05
Writing library : libebml v1.3.0 + libmatroska v1.4.1
Video
ID : 1
Format : AVC
Format/Info : Advanced Video Codec
Format profile : High@L4.1
Format settings, CABAC : Yes
Format settings, ReFrames : 5 frames
Codec ID : V_MPEG4/ISO/AVC
Duration : 1h 16mn
Bit rate : 3 374 Kbps
Width : 1 280 pixels
Height : 720 pixels
Display aspect ratio : 16:9
Frame rate mode : Constant
Frame rate : 25.000 fps
Color space : YUV
Chroma subsampling : 4:2:0
Bit depth : 8 bits
Scan type : Progressive
Bits/(Pixel*Frame) : 0.146
Stream size : 1.80 GiB (84%)
Writing library : x264 core 140 r2377 1ca7bb9
Encoding settings : cabac=1 / ref=5 / deblock=1:0:0 / analyse=0x3:0x113 / me=umh / subme=8 / psy=1 / psy_rd=1.00:0.00 / mixed_ref=1 / me_range=16 / chroma_me=1 / trellis=1 / 8x8dct=1 / cqm=0 / deadzone=21,11 / fast_pskip=1 / chroma_qp_offset=-2 / threads=12 / lookahead_threads=2 / sliced_threads=0 / nr=0 / decimate=1 / interlaced=0 / bluray_compat=0 / constrained_intra=0 / bframes=3 / b_pyramid=2 / b_adapt=2 / b_bias=0 / direct=3 / weightb=1 / open_gop=0 / weightp=2 / keyint=250 / keyint_min=25 / scenecut=40 / intra_refresh=0 / rc_lookahead=50 / rc=crf / mbtree=1 / crf=18.0 / qcomp=0.60 / qpmin=0 / qpmax=69 / qpstep=4 / ip_ratio=1.40 / aq=1:1.00
Language : English
Default : Yes
Forced : No
Audio #1
ID : 2
Format : AC-3
Format/Info : Audio Coding 3
Mode extension : CM (complete main)
Format settings, Endianness : Big
Codec ID : A_AC3
Duration : 1h 16mn
Bit rate mode : Constant
Bit rate : 192 Kbps
Channel count : 2 channels
Channel positions : Front: L R
Sampling rate : 48.0 KHz
Bit depth : 16 bits
Compression mode : Lossy
Stream size : 105 MiB (5%)
Title : ВГТРК
Language : Russian
Default : Yes
Forced : No
Audio #2
ID : 3
Format : AC-3
Format/Info : Audio Coding 3
Mode extension : CM (complete main)
Format settings, Endianness : Big
Codec ID : A_AC3
Duration : 1h 16mn
Bit rate mode : Constant
Bit rate : 384 Kbps
Channel count : 6 channels
Channel positions : Front: L C R, Side: L R, LFE
Sampling rate : 48.0 KHz
Bit depth : 16 bits
Compression mode : Lossy
Stream size : 210 MiB (10%)
Default : No
Forced : No
Text #1
ID : 4
Format : UTF-8
Codec ID : S_TEXT/UTF8
Codec ID/Info : UTF-8 Plain Text
Language : Russian
Default : Yes
Forced : No
Text #2
ID : 5
Format : UTF-8
Codec ID : S_TEXT/UTF8
Codec ID/Info : UTF-8 Plain Text
Language : English
Default : No
Forced : No
Скриншоты:


Последний раз редактировалось: messer20080 (2013-11-25 12:16), всего редактировалось 1 раз
[Профиль] [ЛС]
Показать сообщения:    
Ответить на тему

Текущее время: 04-Июл 14:47

Часовой пояс: UTC + 3



Вы не можете начинать темы
Вы не можете отвечать на сообщения
Вы не можете редактировать свои сообщения
Вы не можете удалять свои сообщения
Вы не можете голосовать в опросах
Вы не можете прикреплять файлы к сообщениям
Вы не можете скачивать файлы