Бриклберри / Brickleberry (Роджер Блэк) (2013 г., ситком чёрный юмор сатира) WEB-DLRip (Сезон 2, 13 серий из 13) (NewStudio) [18+]

Ответить на тему
 
Автор Сообщение

messer20080 ®

Пол: Мужской

Стаж: 7 года 4 месяца

Сообщений: 1960

Создавать темы 30-Ноя-2013 13:22

[Цитировать]

-Бриклберри / Brickleberry
Год выпуска: 2013
Страна: США
Жанр: ситком чёрный юмор сатира
Продолжительность: ~ 00:22:00 каждая серия
Перевод: Профессиональный (двухголосый) NewStudio
Внимание! Присутствует ненормативная лексика!
Возрастное ограничение: 18+

Режиссер: Роджер Блэк
В ролях: Дэниэл Тош, Роджер Блэк, Дэвид Хэрман, Том Кенни, Кэйтлин Олсен и др.
Описание: История строится вокруг рейнджеров-раздолбаев, чудом остающихся на своих рабочих местах, которые столкнулись с закрытием своего парка. На помощь им приходит новенькая девушка-рейнджер, чья цель — преобразить и сохранить заповедник. Всё это выглядит особо комичным, ведь зачастую, лесу и его жителям, в большей степени, угрожают те, кто должен был охранять их.
Озвучка: Константин Погодаев, Анна Тух
Автор перевода: Анна Тимонькина
[kp]http://www.kinopoisk.ru/film/709862/[/kp] [imdb]http://www.imdb.com/title/tt2022713/[/imdb]
Качество: WEB-DLRip
Формат: AVI
Видео: 720x400 (16:9), 23.976 fps, XviD ~1326 kbps, ~0.192 bit/pixel
Аудио: 48 kHz, MPEG Layer 3, 2 ch, 128 kbps CBR (Русский, закадровый)
Аудио: 48 kHz, MPEG Layer 3, 2 ch, 128 kbps CBR (Английский)

MediaInfo

General
Complete name : D:\Brickleberry - Бриклберри. Сезон 2. NewStudio.avit_trecker\Brickleberry.s02e02.webdl.NewStudio.TV.avi
Format : AVI
Format/Info : Audio Video Interleave
File size : 250 MiB
Duration : 21mn 54s
Overall bit rate : 1 595 Kbps
Writing application : VirtualDubMod 1.5.10.2 (build 2540/release)
Writing library : VirtualDubMod build 2540/release
Video
ID : 0
Format : MPEG-4 Visual
Format profile : Advanced Simple@L5
Format settings, BVOP : 2
Format settings, QPel : No
Format settings, GMC : No warppoints
Format settings, Matrix : Default (MPEG)
Codec ID : XVID
Codec ID/Hint : XviD
Duration : 21mn 54s
Bit rate : 1 325 Kbps
Width : 720 pixels
Height : 400 pixels
Display aspect ratio : 16:9
Frame rate : 23.976 fps
Color space : YUV
Chroma subsampling : 4:2:0
Bit depth : 8 bits
Scan type : Progressive
Compression mode : Lossy
Bits/(Pixel*Frame) : 0.192
Stream size : 208 MiB (83%)
Writing library : XviD 64
Audio #1
ID : 1
Format : MPEG Audio
Format version : Version 1
Format profile : Layer 3
Mode : Joint stereo
Mode extension : MS Stereo
Codec ID : 55
Codec ID/Hint : MP3
Duration : 21mn 53s
Bit rate mode : Constant
Bit rate : 128 Kbps
Channel count : 2 channels
Sampling rate : 48.0 KHz
Compression mode : Lossy
Stream size : 20.0 MiB (8%)
Alignment : Aligned on interleaves
Interleave, duration : 42 ms (1.00 video frame)
Interleave, preload duration : 504 ms
Audio #2
ID : 2
Format : MPEG Audio
Format version : Version 1
Format profile : Layer 3
Mode : Joint stereo
Mode extension : MS Stereo
Codec ID : 55
Codec ID/Hint : MP3
Duration : 21mn 54s
Bit rate mode : Constant
Bit rate : 128 Kbps
Channel count : 2 channels
Sampling rate : 48.0 KHz
Compression mode : Lossy
Stream size : 20.1 MiB (8%)
Alignment : Aligned on interleaves
Interleave, duration : 42 ms (1.00 video frame)
Interleave, preload duration : 504 ms
Writing library : LAME3.99r
Encoding settings : -m j -V 4 -q 2 -lowpass 17 -b 128

Список серий

01. Miracle Lake / Чудо Озеро
02. The Comeback / Возвращение
03. Woody's Girl / Девушка Вуди
04. Trailer Park / Парк трейлеров
05. Crippleberry / Парк Калек
06. Ranger Games / Игры рейнджеров
07. My Way or the Highway / Моя дорога или автомагистраль
08. Little Boy Malloy / Малый Маллой
09. The Animals Strike Back / Животные наносят ответный удар
10. Scared Straight / Правильно испуганный
11. Trip to Mars / Полёт на Марс
12. My Favorite Bear / Мой любимый медведь
13. A-Park-a-Lypse / Асвинкалипсис
[Профиль] [ЛС]
Показать сообщения:    
Ответить на тему

Текущее время: 05-Июл 09:25

Часовой пояс: UTC + 3



Вы не можете начинать темы
Вы не можете отвечать на сообщения
Вы не можете редактировать свои сообщения
Вы не можете удалять свои сообщения
Вы не можете голосовать в опросах
Вы не можете прикреплять файлы к сообщениям
Вы не можете скачивать файлы