Сталинград (Фёдор Бондарчук) [2013 г., Военный, Драма, Боевик, DVD5 (сжатый)]

Ответить на тему
 
Автор Сообщение

messer20080 ®

Пол: Мужской

Стаж: 7 года 4 месяца

Сообщений: 1960

Создавать темы 30-Ноя-2013 19:22

[Цитировать]

Сталинград
Год выпуска: 2013
Страна: Россия / Арт Пикчерс Студия
Жанр: Военный, Драма, Боевик
Продолжительность: 02:05:29
Перевод: Не требуется
Режиссер: Фёдор Бондарчук
В ролях: Мария Смольникова, Яна Студилина, Пётр Фёдоров, Томас Кречман, Сергей Бондарчук, Дмитрий Лысенков, Андрей Смоляков, Алексей Барабаш, Олег Волку, Хайнер Лаутербах
Описание: 1942-й год. Сталинград. Советские войска планируют контрнаступление на немецкие части, занявшие правый берег Волги. Наступление сорвано. Лишь разведчикам под командованием капитана Громова удается перебраться на другой берег и закрепиться в одном из домов. Им дан приказ удержать его любой ценой. Кроме нескольких чудом уцелевших советских солдат они находят в доме его последнюю жительницу — 19-летнюю Катю. Приказ отбить дом, захваченный противником, получает немецкий офицер Кан. На фоне одного из самых кровопролитных сражений в истории человечества разворачиваются истории любви и драматического противостояния характеров.-[kp]http://www.kinopoisk.ru/film/468196/[/kp] [imdb]http://www.imdb.com/title/tt1966566/[/imdb]
Дата мировой премьеры: 10 октября 2013
Дата российской премьеры: 10 октября 2013, «WDSSPR»
Дата выхода DVD релиза: 4 декабря 2013, «Lizard Cinema Trade»
Дата выхода Blu-Ray релиза: 4 декабря 2013, «Lizard Cinema Trade»

Качество: DVD5 (сжатый)
Формат: DVD Video
Видео: MPEG-2, 720x576@1024x576 (PAL 16:9), ~4850 kbps, 0.469 bit/pixel
Аудио: AC3 5.1, 448 kbps, 48 kHz [Русский]
Дополнительные материалы: Отсутствуют

Изготовление релиза:

Исходник: Сталинград (2013) DVD9 (R5)
Удалены: аудиодорожки DTS и AC3 2.0
Видео сжато: сжатие конечных титров на 75%, сжатие самого фильма на 27%.
Меню: статичное, на русском языке, недействующие кнопки затерты и закрыты.
Обработка и сжатие: DVD ReMake Pro + DVD Rebuilder + CCE SP2 1.00.01.09 [7 проходов] + Работа с меню (Adobe PhotoShop и MuxMan).

MediaInfo

General
Complete name : D:\Сталинград.(2013).DVD5.avit-trecker\VIDEO_TS\VTS_02_1.VOB
Format : MPEG-PS
File size : 1 024 MiB
Duration : 29mn 3s
Overall bit rate mode : Variable
Overall bit rate : 4 927 Kbps
Video
ID : 224 (0xE0)
Format : MPEG Video
Format version : Version 2
Format profile : Main@Main
Format settings, BVOP : Yes
Format settings, Matrix : Custom
Format settings, GOP : Variable
Duration : 29mn 3s
Bit rate mode : Variable
Bit rate : 4 381 Kbps
Maximum bit rate : 8 468 Kbps
Width : 720 pixels
Height : 576 pixels
Display aspect ratio : 16:9
Frame rate : 25.000 fps
Standard : PAL
Color space : YUV
Chroma subsampling : 4:2:0
Bit depth : 8 bits
Scan type : Progressive
Scan order : Bottom Field First
Compression mode : Lossy
Bits/(Pixel*Frame) : 0.423
Time code of first frame : 00:00:00:00
Time code source : Group of pictures header
Stream size : 911 MiB (89%)
Audio
ID : 189 (0xBD)-128 (0x80)
Format : AC-3
Format/Info : Audio Coding 3
Mode extension : CM (complete main)
Format settings, Endianness : Big
Muxing mode : DVD-Video
Duration : 29mn 3s
Bit rate mode : Constant
Bit rate : 448 Kbps
Channel count : 6 channels
Channel positions : Front: L C R, Side: L R, LFE
Sampling rate : 48.0 KHz
Bit depth : 16 bits
Compression mode : Lossy
Stream size : 93.1 MiB (9%)
Menu

Скриншоты меню

-
[Профиль] [ЛС]
Показать сообщения:    
Ответить на тему

Текущее время: 05-Июл 09:36

Часовой пояс: UTC + 3



Вы не можете начинать темы
Вы не можете отвечать на сообщения
Вы не можете редактировать свои сообщения
Вы не можете удалять свои сообщения
Вы не можете голосовать в опросах
Вы не можете прикреплять файлы к сообщениям
Вы не можете скачивать файлы