Место на метле / Верхом на помеле / Room on the Broom (Ян Лахауэр / Jan Lachauer, Макс Лэнг / Max Lang) [2012, короткометражка, мультфильм, WEB-DL 1080p] DVO + ENG + SUB (rus, eng)

Ответить на тему
 
Автор Сообщение

messer20080 ®

Пол: Мужской

Стаж: 7 года 4 месяца

Сообщений: 1960

Создавать темы 04-Дек-2013 11:09

[Цитировать]

Место на метле : Верхом на помеле
Room on the Broom
Год выпуска: 2012
Страна: Великобритания
Жанр: короткометражка, мультфильм
Продолжительность: 00:26:45
Перевод: Любительский (Двухголосый закадровый) [Компания АнВад]
русские субтитры: есть- Режиссёр: Ян Лахауэр : Jan Lachauer, Макс Лэнг : Max Lang
Роли озвучивали: Саймон Пигг - Simon Pegg, Роб Брайдон - Rob Brydon, Джиллиан Андерсон - Gillian Anderson, Тимоти Спол - Timothy Spall, Мартин Клунз - Martin Clunes, Салли Хоукинс - Sally Hawkins, Дэвид Уоллиэмс - David Walliams- Описание: Это сказка о доброй ведьме, которая, несмотря на недовольство ее кота, совершенно бескорыстно заводила новых друзей, и брала их с собой в полет на, хоть и волшебной, но старенькой метле, на которой едва хватало места для нее с котом. Но однажды метла не выдержала и сломалась, да еще в самый неподходящий момент, когда по пятам их настигал злой дракон. Что стало с ведьмой? куда подевались все ее друзья? чем все закончилось? - расскажет это сказка о настоящей дружбе, которая без всякого волшебства способна творить чудеса...- -Благодарность:
За озвучку Андрею Новицкому и Ольге Куча большое спасибо!
За работу со звуком АнВад большое спасибо!
За перевод русских субтитров adamovna большое спасибо!- Качество: WEB-DL 1080p*(iTunes)
Формат: MKV
Видео кодек: AVC
Аудио кодек: AC3
Видео: 1912x1072 , 23,976 fps, ~4 917 kbps avg, 0.100 bit/pixel
Аудио #1: 48 kHz, AC3 Dolby Digital, 3/2 (L,C,R,l,r) + LFE ch, ~384 kbps avg (DVO)
Аудио #2: 48 kHz, AC3 Dolby Digital, 3/2 (L,C,R,l,r) + LFE ch, ~384 kbps avg (ENG)
субтитры: русские (adamovna), английские
навигация по главам: 5 главы

MediaInfo

Общее
Уникальный идентификатор : 206126084863222243945458108365595484182 (0x9B12709E515D8A9E80E6C92D8FF82016)
Полное имя : C:\Место на метле\Room on the Broom.2012.WEB-DL 1080p.mkv
Формат : Matroska
Версия формата : Version 4 / Version 2
Размер файла : 1,08 Гбайт
Продолжительность : 26 м.
Общий поток : 5800 Кбит/сек
Название фильма : Room on the Broom.2012.WEB-DL 1080p [-Azureus-]
Дата кодирования : UTC 2013-10-29 09:36:03
Программа кодирования : mkvmerge v6.5.0 ('Isn't she lovely') built on Oct 20 2013 12:50:05
Библиотека кодирования : libebml v1.3.0 + libmatroska v1.4.1
Видео
Идентификатор : 1
Формат : AVC
Формат/Информация : Advanced Video Codec
Профиль формата : High@L4.0
Параметр CABAC формата : Да
Параметр ReFrames формата : 4 кадра
Идентификатор кодека : V_MPEG4/ISO/AVC
Продолжительность : 26 м.
Битрейт : 4917 Кбит/сек
Ширина : 1912 пикселей
Высота : 1072 пикселя
Соотношение сторон : 16:9
Частота кадров : 23,976 кадра/сек
Цветовое пространство : YUV
Субдискретизация насыщенности : 4:2:0
Битовая глубина : 8 бит
Тип развёртки : Прогрессивная
Бит/(Пиксели*Кадры) : 0.100
Размер потока : 941 Мбайт (85%)
Язык : English
Default : Да
Forced : Нет
Основные цвета : BT.709-5, BT.1361, IEC 61966-2-4, SMPTE RP177
Характеристики трансфера : BT.709-5, BT.1361
Коэффициенты матрицы : BT.709-5, BT.1361, IEC 61966-2-4 709, SMPTE RP177
Аудио #1
Идентификатор : 2
Формат : AC-3
Формат/Информация : Audio Coding 3
Расширение режима : CM (complete main)
Идентификатор кодека : A_AC3
Продолжительность : 26 м.
Вид битрейта : Постоянный
Битрейт : 384 Кбит/сек
Каналы : 6 каналов
Расположение каналов : Front: L C R, Side: L R, LFE
Частота : 48,0 КГц
Битовая глубина : 16 бит
Метод сжатия : С потерями
Размер потока : 73,5 Мбайт (7%)
Заголовок : DVO [Компания АнВад] (Андрей Новицкий, Ольга Куча)
Язык : Russian
Default : Да
Forced : Нет
Аудио #2
Идентификатор : 3
Формат : AC-3
Формат/Информация : Audio Coding 3
Расширение режима : CM (complete main)
Идентификатор кодека : A_AC3
Продолжительность : 26 м.
Вид битрейта : Постоянный
Битрейт : 384 Кбит/сек
Каналы : 6 каналов
Расположение каналов : Front: L C R, Side: L R, LFE
Частота : 48,0 КГц
Битовая глубина : 16 бит
Метод сжатия : С потерями
Размер потока : 73,5 Мбайт (7%)
Заголовок : ENG
Язык : English
Default : Нет
Forced : Нет
Текст #1
Идентификатор : 4
Формат : UTF-8
Идентификатор кодека : S_TEXT/UTF8
Идентификатор кодека/Информация : UTF-8 Plain Text
Заголовок : Rus Sub [adamovna]
Язык : Russian
Default : Нет
Forced : Нет
Текст #2
Идентификатор : 5
Формат : UTF-8
Идентификатор кодека : S_TEXT/UTF8
Идентификатор кодека/Информация : UTF-8 Plain Text
Заголовок : Eng Sub
Язык : English
Default : Нет
Forced : Нет
Меню
00:00:00.000 : en:Chapter 1
00:00:44.000 : en:Chapter 2
00:07:40.000 : en:Chapter 3
00:15:45.000 : en:Chapter 4
00:25:39.000 : en:Chapter 5
*(iTunes) - короткометражка была приобретена в интернет-магазине iTunes Store!


Последний раз редактировалось: messer20080 (2013-12-04 11:12), всего редактировалось 1 раз
[Профиль] [ЛС]

Создавать темы 04-Дек-2013 11:10 (спустя 40 секунды)

Топик был перенесен из форума HD Rips в форум 1080

messer20080
 

messer20080 ®

Пол: Мужской

Стаж: 7 года 4 месяца

Сообщений: 1960

Создавать темы 04-Дек-2013 11:44 (спустя 34 минуты)

[Цитировать]

Тест парсера
[Профиль] [ЛС]
Показать сообщения:    
Ответить на тему

Текущее время: 05-Июл 10:09

Часовой пояс: UTC + 3



Вы не можете начинать темы
Вы не можете отвечать на сообщения
Вы не можете редактировать свои сообщения
Вы не можете удалять свои сообщения
Вы не можете голосовать в опросах
Вы не можете прикреплять файлы к сообщениям
Вы не можете скачивать файлы