Хочу как Бриджет / Joséphine (Аньес Обадья / Agnès Obadia) [2013, Франция, комедия, WEB-DLRip] MVO | Релиз мультитрекерный

Ответить на тему
 
Автор Сообщение

donald ®

Пол: Мужской

Стаж: 7 года 1 месяц

Сообщений: 174

Создавать темы 05-Дек-2013 13:43

[Цитировать]

-Хочу как Бриджет / Jos�phine-
Страна: Франция
Жанр: комедия
Год выпуска: 2013
Продолжительность: 01:24:54
Перевод: Профессиональный (многоголосый закадровый)
Cубтитры: нет
Режиссер: Аньес Обадья / Agn�s Obadia
В ролях: Марилу Берри, Мехди Неббу, Беренжер Криф, Армель Чахби, Сирил Гуи, Шарли Дюпон, Алис Поль, Каролин Англад, Брюно Подалидес, Арбен Байрактарай
Описание: Жозефине почти тридцать и у неё большая попа, которая, по её мнению, является главной причиной отсутствия личной жизни. Девушка отчаянно пытается бороться со своей пятой точкой липосакциями и антицеллюлитными мочалками, но всё тщетно. Единственным утешением является то, что она живёт с Брэдом Питтом — именно так зовут ее кота. Но последней каплей станет известие о том, что её сестра выходит замуж. Не в силах смириться с тем, что все вокруг нашли себе половинок, Жозефина придумывает роман с бразильским хирургом, к которому она якобы улетает за океан. И эта маленькая легенда превращает её жизнь в большое приключение со счастливым концом.
Качество видео: WEB-DLRip
Формат видео: AVI
Видео: XviD, 2071 kb/s, 25,000fps, 720x384
Аудио: AC3, 48.0 KHz, 224 kb/s, (2 ch)
- -

MediaInfo

Общее
Полное имя : C:\Раздачи\Hochu.kak.Bridzhet.2013.P.WEBDLRip.1400Mb.avi
Формат : AVI
Формат/Информация : Audio Video Interleave
Размер файла : 1,37 Гбайт
Продолжительность : 1 ч. 24 м.
Общий поток : 2305 Кбит/сек
Программа кодирования : VirtualDubMod 1.5.10.3 | www.virtualdub-fr.org || (build 2550/release)
Библиотека кодирования : VirtualDubMod build 2550/release
Видео
Идентификатор : 0
Формат : MPEG-4 Visual
Профиль формата : Advanced Simple@L5
Параметр BVOP формата : 1
Параметр QPel формата : Нет
Параметр GMC формата : Без точки перехода
Параметр матрицы формата : Выборочная
Идентификатор кодека : XVID
Идентификатор кодека/Подсказка : XviD
Продолжительность : 1 ч. 24 м.
Битрейт : 2071 Кбит/сек
Ширина : 720 пикселей
Высота : 384 пикселя
Соотношение сторон : 1,85:1
Частота кадров : 25,000 кадров/сек
Цветовое пространство : YUV
Субдискретизация насыщенности : 4:2:0
Битовая глубина : 8 бит
Тип развёртки : Прогрессивная
Метод сжатия : С потерями
Бит/(Пиксели*Кадры) : 0.300
Размер потока : 1,23 Гбайт (90%)
Библиотека кодирования : XviD 1.2.1 (UTC 2008-12-04)
Аудио
Идентификатор : 1
Формат : AC-3
Формат/Информация : Audio Coding 3
Расширение режима : CM (complete main)
Параметр Endianness формата : Big
Идентификатор кодека : 2000
Продолжительность : 1 ч. 24 м.
Вид битрейта : Постоянный
Битрейт : 224 Кбит/сек
Каналы : 2 канала
Расположение каналов : Front: L R
Частота : 48,0 КГц
Битовая глубина : 16 бит
Метод сжатия : С потерями
Размер потока : 136 Мбайт (10%)
Выравнивание : Разделение по промежуткам
Продолжительность промежутка : 40 мс. (1,00 видеокадр)
Время предзагрузки промежутка : 500 мс.

Скриншот c названием фильма

Скриншоты



- -
[Профиль] [ЛС]
Показать сообщения:    
Ответить на тему

Текущее время: 04-Июл 15:09

Часовой пояс: UTC + 3



Вы не можете начинать темы
Вы не можете отвечать на сообщения
Вы не можете редактировать свои сообщения
Вы не можете удалять свои сообщения
Вы не можете голосовать в опросах
Вы не можете прикреплять файлы к сообщениям
Вы не можете скачивать файлы