Сталинград / Stalingrad (Йозеф Вильсмайер / Joseph Vilsmaier) [1993 г., Германия, драма, военный, BDRip] DVO (+вставки AVO Живов)

Ответить на тему
 
Автор Сообщение

messer20080 ®

Пол: Мужской

Стаж: 7 года 4 месяца

Сообщений: 1960

Создавать темы 06-Дек-2013 17:47

[Цитировать]

Сталинград / Stalingrad«Они сражались в аду....»-- Год выпуска: 1993
Страна: Германия
Жанр: драма, военный
Продолжительность: 02:17:51
Перевод: Профессиональный (двухголосый закадровый) - c вставками Ю. Живов(на непереведённые места)
Субтитры: нет--Режиссер: Йозеф Вильсмайер
В ролях: Доминик Хорвиц, Томас Кретчманн, Йохен Никель, Себастиан Рудолф, Мартин Бенрат, Сильвестр Грот, Хайнц Эмигхольц, Карел Херманек, Дитер Окрас, Оливер Браумис, Марк Кун, Зденек Венцль, Дана Ваврова--Описание: Зима 1942 года. Шестая армия вермахта сражается в разрушенном до основания Сталинграде. Взвод элитных немецких солдат, в первой же битве потерявший больше половины личного состава, ведет отчаянную борьбу за выживание.
Свист пуль и рев «катюш», голод и холод доводят их до грани безумия. Уже почти ничего не удерживает солдат на тонкой линии между жизнью и смертью. После всего, что они видели, после утраты всех идеалов призыв фюрера «стоять до конца» приобретает для них совсем другое, гораздо более страшное значение…-- --Качество: BDRip
Формат: AVI
Видео кодек: XviD
Аудио кодек: AC3
Видео: 720x384 (1.88:1), 23.976 fps, 1312 kbps, 0.198 bit/pixel
Аудио: 48 kHz, AC3 Dolby Digital, 2 (L,R) ch, ~192.00 kbps avg

MediaInfo

Общее
Полное имя : D:\Stalingrad.1993.BDRip.avi
Формат : AVI
Формат/Информация : Audio Video Interleave
Размер файла : 1,46 Гбайт
Продолжительность : 2 ч. 17 м.
Общий поток : 1513 Кбит/сек
Название фильма : Сталинград / Stalingrad (1993) BDRip
Программа кодирования : VirtualDubMod 1.5.10.2 (build 2540/release)
Библиотека кодирования : VirtualDubMod build 2540/release
Видео
Идентификатор : 0
Формат : MPEG-4 Visual
Профиль формата : Advanced Simple@L5
Параметр BVOP формата : 1
Параметр QPel формата : Нет
Параметр GMC формата : Без точки перехода
Параметр матрицы формата : Выборочная
Режим смешивания : Сжатый битовый поток
Идентификатор кодека : XVID
Идентификатор кодека/Подсказка : XviD
Продолжительность : 2 ч. 17 м.
Битрейт : 1312 Кбит/сек
Ширина : 720 пикселей
Высота : 384 пикселя
Соотношение сторон : 1,85:1
Частота кадров : 23,976 кадра/сек
Цветовое пространство : YUV
Субдискретизация насыщенности : 4:2:0
Битовая глубина : 8 бит
Тип развёртки : Прогрессивная
Метод сжатия : С потерями
Бит/(Пиксели*Кадры) : 0.198
Размер потока : 1,26 Гбайт (87%)
Библиотека кодирования : XviD 65
Аудио
Идентификатор : 1
Формат : AC-3
Формат/Информация : Audio Coding 3
Расширение режима : CM (complete main)
Параметр Endianness формата : Big
Идентификатор кодека : 2000
Продолжительность : 2 ч. 17 м.
Вид битрейта : Постоянный
Битрейт : 192 Кбит/сек
Каналы : 2 канала
Расположение каналов : Front: L R
Частота : 48,0 КГц
Битовая глубина : 16 бит
Метод сжатия : С потерями
Размер потока : 189 Мбайт (13%)
Выравнивание : Разделение по промежуткам
Продолжительность промежутка : 42 мс. (1,00 видеокадр)
Время предзагрузки промежутка : 500 мс.

Сравнение

Сравнение с этим

Скриншоты




[Профиль] [ЛС]
Показать сообщения:    
Ответить на тему

Текущее время: 04-Июл 09:24

Часовой пояс: UTC + 3



Вы не можете начинать темы
Вы не можете отвечать на сообщения
Вы не можете редактировать свои сообщения
Вы не можете удалять свои сообщения
Вы не можете голосовать в опросах
Вы не можете прикреплять файлы к сообщениям
Вы не можете скачивать файлы