Бомба (1-8 серия из 8) (Олег Фесенко, Боевик, История, Драма, 2013) SATRip

Ответить на тему
 
Автор Сообщение

messer20080 ®

Пол: Мужской

Стаж: 7 года 4 месяца

Сообщений: 1960

Создавать темы 07-Дек-2013 09:21

[Цитировать]

-Бомба (1-8 серия из 8) (2013) SATRip- Русское название: Бомба
Год выпуска: 2013
Производство: Украина, Star Media
Жанр: Боевик, История, Драма
Дата российской премьеры: 2 декабря 2013
Режиссер: Олег Фесенко
Актеры: Ирина Крутик, Алексей Бардуков, Ольга Арнтгольц, Антон Соколов, Андрей Панин, Анатолий Кот, Ольга Сутулова, Александр Наумов, Антон Соколов, Павел Алдошин, Денис Мартынов, Игорь Писный, Владимир Мельник, Андрей Джеджула, Валерий Шалыга, Андрей Кронглевский
Описание фильма:
1941 год. Жизнь студента физмеха Ленинградского индустриального института круто развернулась за один день, перед самой весенней сессией. Иван Гучков «попал на карандаш» майору Лобанову – начальнику отдела Разведывательного управления Ленинградского военного округа. Несколько месяцев спустя в советское ГРУ поступают сведения, что в США полным ходом идет секретная разработка мощнейшего атомного боеприпаса.
Советская разведка принимает решение завербовать Ивана в Неваду на объект «Х» - завод по производству обогащенного урана. Чтобы кандидатура Гучкова не вызывала подозрений, ему меняют не только имя и внешность, но и биографию. Иван перевоплощается в пропавшего без вести курсанта-морпеха Стенли Либера и теперь, будучи объявлен выжившим, он должен жениться на невесте Либера Шейле. Девушка самоотверженно делит с Иваном все его невзгоды и даже решает отправиться с ним в Неваду. Постепенно Иван забывает о собственной невесте Лике, оставшейся в Советском Союзе, да и неизвестно выжила ли она в блокадном Ленинграде.
Но жизнь разведчика непредсказуема: Шейлу, а затем Ивана арестовывают и депортируют в Советский Союз. Там Гучкову придется пройти все круги ада, прежде чем приступить к поискам тех, кто ему дорог и того, что ему нужно.

Продолжительность: 00:44:19 серия
Качество видео: SATRip
Видеокодек: DivX
Битрейт видео: 1500 kbps
Размер кадра: 720x400
Частота кадров: 25,000 fps
Аудиокодек: MP3, 2 ch
Битрейт аудио: 192 kbps

MI

Общее
Полное имя                               : E:\Разное\Bomba.2013.SATRip.NNM-CLUB\1.serija.avi
Формат                                   : AVI
Формат/Информация                        : Audio Video Interleave
Размер файла                             : 540 Мбайт
Продолжительность                        : 44 м.
Общий поток                              : 1702 Кбит/сек
Библиотека кодирования                   : VirtualDub build 35491/release
Видео
Идентификатор                            : 0
Формат                                   : MPEG-4 Visual
Параметр BVOP формата                    : 1
Параметр QPel формата                    : Нет
Параметр GMC формата                     : Без точки перехода
Параметр матрицы формата                 : Default (H.263)
Режим смешивания                         : Сжатый битовый поток
Идентификатор кодека                     : DX50
Идентификатор кодека/Подсказка           : DivX 5
Продолжительность                        : 44 м.
Битрейт                                  : 1501 Кбит/сек
Ширина                                   : 720 пикселей
Высота                                   : 400 пикселей
Соотношение сторон                       : 16:9
Частота кадров                           : 25,000 кадров/сек
Цветовое пространство                    : YUV
Субдискретизация насыщенности            : 4:2:0
Битовая глубина                          : 8 бит
Тип развёртки                            : Прогрессивная
Метод сжатия                             : С потерями
Бит/(Пиксели*Кадры)                      : 0.208
Размер потока                            : 476 Мбайт (88%)
Библиотека кодирования                   : DivX 6.8.5 (UTC 2009-08-20)
Аудио
Идентификатор                            : 1
Формат                                   : MPEG Audio
Версия формата                           : Version 1
Профиль формата                          : Layer 3
Режим                                    : Joint stereo
Расширение режима                        : MS Stereo
Идентификатор кодека                     : 55
Идентификатор кодека/Подсказка           : MP3
Продолжительность                        : 44 м.
Вид битрейта                             : Постоянный
Битрейт                                  : 192 Кбит/сек
Каналы                                   : 2 канала
Частота                                  : 48,0 КГц
Метод сжатия                             : С потерями
Размер потока                            : 60,9 Мбайт (11%)
Выравнивание                             : Разделение по промежуткам
Продолжительность промежутка             : 40  мс. (1,00 видеокадр)
Время предзагрузки промежутка            : 500  мс.
Скриншоты:
[Профиль] [ЛС]
Показать сообщения:    
Ответить на тему

Текущее время: 08-Июл 09:39

Часовой пояс: UTC + 3



Вы не можете начинать темы
Вы не можете отвечать на сообщения
Вы не можете редактировать свои сообщения
Вы не можете удалять свои сообщения
Вы не можете голосовать в опросах
Вы не можете прикреплять файлы к сообщениям
Вы не можете скачивать файлы