Мышеловка для кота [01-12 из 12] (2019) WEB-DLRip

Ответить на тему
Статистика раздачи
Нет
   
 
Автор Сообщение

BOSS ®

Стаж: 6 года 9 месяца

Сообщений: 5324

Откуда: ODESSA

Создавать темы 14-Мар-2020 16:19

[Цитировать]

Информация о фильме
Оригинальное название: Мышеловка для кота
Год выхода: 2019
Жанр: Криминальная драма, детектив
Режиссер: Михаил Савин
В ролях: Дмитрий Суржиков, Сергей Сипливый, Андрей Романий, Евгений Ковырзанов, Татьяна Коновалова, Константин Темляк, Андрей Мордовец, Владимир Гончаров (III), Дарья Рыбак, Сергей Асовский, Дарья Петрожицкая, Жанна Богдевич, Алёна Курта
О фильме:
Студент, журналист и учительница внезапно получают по миллиону долларов. Оправившись от такого подарка судьбы, они узнают, что стали ставками чьей азартной игры, и теперь на кону их жизни и еще три миллиона долларов...
Страна: Украина
Студия: "Студия Квартал 95"
Продолжительность: 12 х 00:45:00
Перевод: Не требуется
Файл
Кодек: XviD
Качество: WEB-DLRip
Видео: XviD, ~ 1600 Кбит/с, 720x400, 25 кадр/с
Звук: AC3, 2 ch, 192 Кбит/с

Скриншоты

Релиз

Автор рипа Nicodem
Релиз от Files-x без рекламы, логотипа канала и "всплывающих" надписей

MediaInfo

General
Complete name : C:01.Мышеловка для кота.(2019).WEB-DLRip.by.Nicodem.Files-x.avi
Format : AVI
Format/Info : Audio Video Interleave
File size : 526 MiB
Duration : 40mn 50s
Overall bit rate : 1 802 Kbps
Writing application : VirtualDubMod 1.5.10.3 | www.virtualdub-fr.org || (build 2550/release)
Writing library : VirtualDubMod build 2550/release
Video
ID : 0
Format : MPEG-4 Visual
Format profile : Advanced Simple@L5
Format settings, BVOP : 1
Format settings, QPel : No
Format settings, GMC : No warppoints
Format settings, Matrix : Custom
Codec ID : XVID
Codec ID/Hint : XviD
Duration : 40mn 50s
Bit rate : 1 600 Kbps
Width : 720 pixels
Height : 400 pixels
Display aspect ratio : 16:9
Frame rate : 25.000 fps
Color space : YUV
Chroma subsampling : 4:2:0
Bit depth : 8 bits
Scan type : Progressive
Compression mode : Lossy
Bits/(Pixel*Frame) : 0.222
Stream size : 467 MiB (89%)
Writing library : XviD 73
Audio
ID : 1
Format : AC-3
Format/Info : Audio Coding 3
Mode extension : CM (complete main)
Codec ID : 2000
Duration : 40mn 50s
Bit rate mode : Constant
Bit rate : 192 Kbps
Channel(s) : 2 channels
Channel positions : Front: L R
Sampling rate : 48.0 KHz
Bit depth : 16 bits
Compression mode : Lossy
Stream size : 56.1 MiB (11%)
Alignment : Split accross interleaves
Interleave, duration : 40 ms (1.00 video frame)
Interleave, preload duration : 500 ms

Внимание! Раздача ведётся путём добавления новых серий

Раздача ведётся путём добавления новых серий, при каждом добавлении создаётся новый торрент. Чтобы начать докачку новой серии, пользователям необходимо сделать следующее:
- Остановить скачивание.
- Удалить старый торрент у себя из клиента (старые серии удалять не надо).
- Скачать новый торрент и запустить его у себя в клиенте вместо старого, при этом указать клиенту путь в старую папку куда и должно происходить скачивание новых серий.
Ваш клиент при этом должен произвести хеширование (проверку) старой папки (если не производит сам - помогите ему сделать это), и будет докачивать только те серии которых у вас ещё нет. Старые серии при этом не удаляются, а продолжают раздаваться!
Если вы уже удалили старые серии, то предотвратить повторную закачку старых серий можно, отжав галочку в соответствующих местах при запуске нового торрента. По возможности, желательно не удалять старые серии как можно дольше, чтобы релизер не столько продолжал раздавать старые серии, а смог сконцентрироваться на новых.
[Профиль] [ЛС]
Показать сообщения:    
Ответить на тему

Текущее время: 15-Авг 20:09

Часовой пояс: UTC + 3



Вы не можете начинать темы
Вы не можете отвечать на сообщения
Вы не можете редактировать свои сообщения
Вы не можете удалять свои сообщения
Вы не можете голосовать в опросах
Вы не можете прикреплять файлы к сообщениям
Вы не можете скачивать файлы