Ван Хельсинг в 3Д / Van Helsing 3D (2004) Горизонтальная анаморфная стереопара

Ответить на тему
Статистика раздачи
Нет
   
 
Автор Сообщение

utermidai ®

Стаж: 6 года 7 месяца

Сообщений: 609

Откуда: Ukraine

Создавать темы 27-Июл-2020 22:09

[Цитировать]

Информация о фильме:
Название: Ван Хельсинг
Оригинальное название: Van Helsing
Страна: США, Чехия
Год выпуска: 3 мая 2004
Производство: Carpathian Pictures, Stillking Films, The Sommers Company, Universal Pictures
Жанр: Фантастика, Фэнтези, Боевик, Приключения, Ужасы, Триллер
Слоган: «The One Name They All Fear»
Продолжительность: 02:11:36
Перевод: Профессиональный дублированный
Режиссер: Джордан Вот-Робертс

Роли исполняли (дублировали):
Гэбриэл Ван Хельсинг Хью Джекман (Владимир Антоник)
Анна Валериус / Охотница на вампиров Кейт Бекинсейл (Ольга Плетнева)
Граф Дракула Ричард Роксбург (Всеволод Кузнецов)
Карл Дэвид Венхам (Вячеслав Баранов)
Чудовище Франкенштейна Шулер Хенсли (Алексей Колган)
Маришка Джози Маран (Ольга Сирина)
Алира Елена Анайя
Велкан Валериус/Человек-волк Уилл Кемп (Андрей Бархударов)
Игор Кевин Дж. О’Коннор (Александр Клюквин)
Кардинал Джинетт Алан Армстронг (Виктор Бохон)
Верона Сильвия Коллока (Ольга Голованова)
Виктор Франкенштейн Сэмюэль Уэст (Алексей Колган)
голос Мистера Хайда Робби Колтрейн (Александр Клюквин) О фильме:
Глубоко в Карпатах лежит таинственная страна Трансильвания - мир, в котором зло встречается на каждом шагу, мир, в котором опасность оживает с заходом солнца, и где монстры, живущие в глубине человеческих кошмаров, обретают форму.
В этот мир попадает легендарный охотник на чудовищ Ван Хельсинг, рождённый на страницах романа «Дракула» Брэма Стокера.
В своей непрерывной битве против сил зла и за освобождение мира от порождений ада, Ван Хельсинг, по заданию секретного общества, отправляется в Трансильванию, чтобы скрестить оружие со смертельно опасным, наделённым неведомой силой графом Дракулой.
На помощь ему внезапно приходит бесстрашная Анна Валери, поставившая целью избавить свою семью от векового проклятья, наложенного убитым вампиром.-- Информация о видео-файле:
Качество: HD DVD.Remux
Контейнер: MKV
Формат 3D: Half OverUnder / Горизонтальная анаморфная стереопара
Порядок ракурсов: левый ракурс первый
Видео: AVC / 1920х1080p / 23,976 fps / 8.0 Mbps
Аудио:
- Русский / AC3 / 44,1 KHz / 2.0 ch / 192 Kbps Знаете ли вы, что...

Знаете ли вы, что...

Еще в 1994 году данный проект задумывался как сиквел к оригинальному фильму Брэма Стокера «Дракула», главную роль в котором должен был исполнить Энтони Хопкинс. Однако с тех пор утекло много воды, и первоначальный сценарий изменился до неузнаваемости.
Хью Джекман снимался в двух фильмах одновременно: «Люди Икс 2» и «Ван Хельсинг». Причем, предпочтение было отдано именно «Ван Хельсингу». Неслучайно съемки одной из сцен «Людей Икс 2» были перенесены на тот промежуток времени, когда Хью получил выходной день на съемочной площадке «ВХ». Тем не менее, в мировой прокат «Ван Хельсинг» вышел на год позднее.
Роль Карла по слухам должна была достаться Полу Хогану. Но в итоге Карлом был избран Дэвид Венхэм.
Специально для исполнения роли Ван Хельсинга Хью Джекман получил в свое распоряжение солидную шевелюру.
Оригинальный персонаж по фамилии Ван Хельсинг из «Дракулы» волею обстоятельств сменил свое имя с Абрахама на Гэбриель.
Стивен Соммерс хотел пригласить Кейт Бекинсейл на роль Анны, но подумал, что персонаж слишком похож на ее роль в фильме «Другой мир» (2003), снимавшемся одновременно. Однако агент актрисы попросил режиссера просто послать ей сценарий, и Бекинсейл немедленно согласилась на роль.
Роль Игоря была специально написана для близкого друга режиссера Кевина О’Коннора.
Начало фильма совпадает с началом Невеста Франкенштейна (фильм, 1935), где также сгорает мельница, а создание Франкенштейна спасается в колодце.
Во время съемок пришла трагическое известие о смерти отца режиссера, Стивена Соммерса. Поэтому надпись «In memory of my Dad» в финальных титрах вполне понятна.
Mедиа инфо

M/инфо

Общее
Уникальный идентификатор : 69722699221181948321367797774029024684 (0x34741A79F403CA2400E71ED9A011EDAC)
Полное имя : F:\Кино\Avit.Кино\Van Helsing 3D HD-rmx.1080p.vc1.rus.Avtt.torent.trekker.mkv
Формат : Matroska
Версия формата : Version 4 / Version 2
Размер файла : 7,47 Гбайт
Продолжительность : 2 ч. 11 м.
Общий поток : 8130 Кбит/сек
Дата кодирования : UTC 2007-09-21 06:17:22 / UTC 2007-09-21 06:17:22
Программа кодирования : Lavf56.15.102
Библиотека кодирования : Lavf56.15.102 / Lavf56.15.102
Видео
Идентификатор : 1
Формат : AVC
Формат/Информация : Advanced Video Codec
Профиль формата : Baseline@L4
Параметр CABAC формата : Нет
Параметр ReFrames формата : 2 кадра
Идентификатор кодека : V_MPEG4/ISO/AVC
Продолжительность : 2 ч. 11 м.
Битрейт : 8000 Кбит/сек
Ширина : 1920 пикселей
Высота : 1080 пикселей
Соотношение сторон : 16:9
Режим частоты кадров : Постоянный
Частота кадров : 23,976 кадра/сек
Цветовое пространство : YUV
Субдискретизация насыщенности : 4:2:0
Битовая глубина : 8 бит
Тип развёртки : Прогрессивная
Бит/(Пиксели*Кадры) : 0.161
Размер потока : 7,15 Гбайт (96%)
Заголовок : Ван Хельсинг
Библиотека кодирования : x264 core 142
Настройки программы : cabac=0 / ref=2 / deblock=1:0:0 / analyse=0x1:0x111 / me=hex / subme=4 / psy=1 / psy_rd=1.00:0.00 / mixed_ref=0 / me_range=16 / chroma_me=1 / trellis=1 / 8x8dct=0 / cqm=0 / deadzone=21,11 / fast_pskip=1 / chroma_qp_offset=0 / threads=6 / lookahead_threads=1 / sliced_threads=0 / nr=0 / decimate=1 / interlaced=0 / bluray_compat=0 / constrained_intra=0 / bframes=0 / weightp=0 / keyint=250 / keyint_min=23 / scenecut=40 / intra_refresh=0 / rc_lookahead=20 / rc=abr / mbtree=1 / bitrate=8000 / ratetol=1.0 / qcomp=0.60 / qpmin=0 / qpmax=69 / qpstep=4 / ip_ratio=1.40 / aq=1:1.00
Язык : English
Default : Да
Forced : Нет
Аудио
Идентификатор : 2
Формат : MPEG Audio
Версия формата : Version 1
Профиль формата : Layer 3
Режим : Joint stereo
Расширение режима : MS Stereo
Идентификатор кодека : A_MPEG/L3
Идентификатор кодека/Подсказка : MP3
Продолжительность : 2 ч. 11 м.
Вид битрейта : Постоянный
Битрейт : 192 Кбит/сек
Каналы : 2 канала
Частота : 44,1 КГц
Метод сжатия : С потерями
Задержка видео : -67 мс.
Размер потока : 181 Мбайт (2%)
Заголовок : Ван Хельсинг
Библиотека кодирования : LAMEЄЄ)K¶Ыћњз¬К<
Язык : Russian
Default : Да
Forced : Нет


-Время раздачи: по мере возможности
[Профиль] [ЛС]
Показать сообщения:    
Ответить на тему

Текущее время: 12-Авг 21:20

Часовой пояс: UTC + 3



Вы не можете начинать темы
Вы не можете отвечать на сообщения
Вы не можете редактировать свои сообщения
Вы не можете удалять свои сообщения
Вы не можете голосовать в опросах
Вы не можете прикреплять файлы к сообщениям
Вы не можете скачивать файлы