Семь / Se7en (1995) BDRip 1080p | Кубик в Кубе | Remastered

Ответить на тему
Статистика раздачи
Нет
   
 
Автор Сообщение

Viktor59 ®

Стаж: 7 года 5 месяца

Сообщений: 890

Откуда: Измаил

Создавать темы 29-Июл-2020 19:56

[Цитировать]

Информация о фильме
Название: Семь
Оригинальное название: Se7en / Seven
Год выхода: 1995
Жанр: триллер, драма, криминал, детектив
Режиссер: Дэвид Финчер
В ролях: Брэд Питт, Морган Фриман, Гвинет Пэлтроу, Кевин Спейси, Р. Ли Эрми, Эндрю Кевин Уокер, Дэниэл Зацапа, Джон Кассини, Боб Макк, Питер Кромби, Рег Э. Кэти
О фильме: Детектив Уильям Сомерсет — ветеран уголовного сыска, мечтающий уйти на пенсию и уехать подальше от города и грешных обитателей. За 7 дней до пенсии на Сомерсета сваливаются две неприятности: молодой напарник Миллс и особо изощренное убийство. Острый ум опытного сыщика сразу определяет, что за этим преступлением, скорее всего, последуют другие. Новости подтверждают его догадку. Поняв, что убийца наказывает свои жертвы за совершенные ими смертные грехи, детектив встает перед выбором: вернуться к работе, либо уйти и передать дело своему менее опытному напарнику?

Страна: США
Студия: New Line Cinema, Cecchi Gori Pictures
Продолжительность: 02:06:49
Перевод: Профессиональный (двухголосый, закадровый) Кубик в Кубе
Файл
Качество: BDRip 1080p | K.A.F.
Формат: Matroska
Видео: 1920x800 at 23.976 fps, x264, ~11700 kbps avg
Аудио#1: Russian: 48 kHz, AC3, 3/2 (L,C,R,l,r) + LFE ch, ~448 kbps avg |Двухголосый закадровый, Кубик в Кубе|
Аудио#2: English: 48 kHz, AC3, 3/2 (L,C,R,l,r) + LFE ch, ~448 kbps avg
Субтитры: Russian (Forced, Full), English (Full, SDH)
***Сохранены и подписаны оригинальные главы как на Blu-ray
***Внимание! Присутствует ненормативная лексика!

MediaInfo

General
Unique ID : 172397678987466096563560444183015441817 (0x81B295D1AA346F039440AB5983FDC599)
Complete name : Se7en.1995.BDRip.1080p.Remastered.mkv
Format : Matroska
Format version : Version 2
File size : 11.2 GiB
Duration : 2 h 6 min
Overall bit rate : 12.6 Mb/s
Movie name : Семь / Se7en (1995)
Encoded date : UTC 2020-07-29 13:08:53
Writing application : mkvmerge v5.8.0 ('No Sleep / Pillow') built on Sep 2 2012 15:37:04
Writing library : libebml v1.2.3 + libmatroska v1.3.0
Video
ID : 1
Format : AVC
Format/Info : Advanced Video Codec
Format profile : High@L4.1
Format settings : CABAC / 5 Ref Frames
Format settings, CABAC : Yes
Format settings, Reference fra : 5 frames
Codec ID : V_MPEG4/ISO/AVC
Duration : 2 h 6 min
Bit rate : 11.7 Mb/s
Width : 1 920 pixels
Height : 800 pixels
Display aspect ratio : 2.40:1
Frame rate mode : Constant
Frame rate : 23.976 (24000/1001) FPS
Color space : YUV
Chroma subsampling : 4:2:0
Bit depth : 8 bits
Scan type : Progressive
Bits/(Pixel*Frame) : 0.318
Stream size : 10.1 GiB (91%)
Writing library : x264 core 138 r2358 9e941d1
Encoding settings : cabac=1 / ref=5 / deblock=1:-3:-3 / analyse=0x3:0x133 / me=tesa / subme=11 / psy=1 / psy_rd=1.00:0.10 / mixed_ref=1 / me_range=32 / chroma_me=1 / trellis=2 / 8x8dct=1 / cqm=0 / deadzone=21,11 / fast_pskip=0 / chroma_qp_offset=-3 / threads=12 / lookahead_threads=1 / sliced_threads=0 / nr=0 / decimate=0 / interlaced=0 / bluray_compat=0 / constrained_intra=0 / bframes=4 / b_pyramid=2 / b_adapt=2 / b_bias=0 / direct=3 / weightb=0 / open_gop=0 / weightp=2 / keyint=240 / keyint_min=23 / scenecut=40 / intra_refresh=0 / rc=2pass / mbtree=0 / bitrate=11709 / ratetol=1.0 / qcomp=0.60 / qpmin=0 / qpmax=69 / qpstep=4 / cplxblur=20.0 / qblur=0.5 / ip_ratio=1.40 / pb_ratio=1.30 / aq=1:1.00
Language : English
Default : Yes
Forced : No
Audio #1
ID : 2
Format : AC-3
Format/Info : Audio Coding 3
Commercial name : Dolby Digital
Codec ID : A_AC3
Duration : 2 h 6 min
Bit rate mode : Constant
Bit rate : 448 kb/s
Channel(s) : 6 channels
Channel layout : L R C LFE Ls Rs
Sampling rate : 48.0 kHz
Frame rate : 31.250 FPS (1536 SPF)
Bit depth : 16 bits
Compression mode : Lossy
Stream size : 406 MiB (4%)
Title : Двухголосый | Кубик в Кубе
Language : Russian
Service kind : Complete Main
Default : Yes
Forced : No
Audio #2
ID : 3
Format : AC-3
Format/Info : Audio Coding 3
Commercial name : Dolby Digital
Codec ID : A_AC3
Duration : 2 h 6 min
Bit rate mode : Constant
Bit rate : 448 kb/s
Channel(s) : 6 channels
Channel layout : L R C LFE Ls Rs
Sampling rate : 48.0 kHz
Frame rate : 31.250 FPS (1536 SPF)
Bit depth : 16 bits
Compression mode : Lossy
Stream size : 406 MiB (4%)
Language : English
Service kind : Complete Main
Default : No
Forced : No
Text #1
ID : 4
Format : UTF-8
Codec ID : S_TEXT/UTF8
Codec ID/Info : UTF-8 Plain Text
Title : Forced | Позитив-Мультимедиа
Language : Russian
Default : Yes
Forced : No
Text #2
ID : 5
Format : UTF-8
Codec ID : S_TEXT/UTF8
Codec ID/Info : UTF-8 Plain Text
Title : Full | Позитив-Мультимедиа
Language : Russian
Default : No
Forced : No
Text #3
ID : 6
Format : UTF-8
Codec ID : S_TEXT/UTF8
Codec ID/Info : UTF-8 Plain Text
Title : Full | Супербит
Language : Russian
Default : No
Forced : No
Text #4
ID : 7
Format : UTF-8
Codec ID : S_TEXT/UTF8
Codec ID/Info : UTF-8 Plain Text
Title : Full | CP-Digital
Language : Russian
Default : No
Forced : No
Text #5
ID : 8
Format : UTF-8
Codec ID : S_TEXT/UTF8
Codec ID/Info : UTF-8 Plain Text
Title : Full
Language : English
Default : No
Forced : No
Text #6
ID : 9
Format : UTF-8
Codec ID : S_TEXT/UTF8
Codec ID/Info : UTF-8 Plain Text
Title : SDH
Language : English
Default : No
Forced : No
Menu
00:00:00.000 : en:1. The Last Seven Days
00:04:11.251 : en:2. Main Titles
00:06:19.254 : en:3. Monday
00:07:33.745 : en:4. Gluttony
00:14:47.512 : en:5. Somerset Wants Out
00:17:07.443 : en:6. Tuesday
00:18:11.465 : en:7. Greed
00:21:42.176 : en:8. Seven Deadly Sins
00:24:26.757 : en:9. Hitting The Books
00:29:28.517 : en:10. Wednesday
00:30:27.034 : en:11. Close Quarters
00:33:13.158 : en:12. A Late Supper
00:37:28.455 : en:13. Forced Attrition
00:42:23.541 : en:14. Mrs. Gould
00:43:32.860 : en:15. Help Me
00:47:43.235 : en:16. Thursday
00:50:18.390 : en:17. Sloth
00:54:24.803 : en:18. Feeding Off His Emotions
00:57:28.195 : en:19. Friday
01:01:45.160 : en:20. Methodical, Exacting and Patient
01:04:19.606 : en:21. Who's Reading What
01:07:26.584 : en:22. John Doe
01:14:45.022 : en:23. A Reason to Knock
01:20:34.038 : en:24. "I Admire You"
01:24:07.251 : en:25. Saturday
01:25:04.141 : en:26. Lust
01:28:15.499 : en:27. Apathy is Easy
01:33:05.163 : en:28. Sunday; Pride
01:33:58.800 : en:29. Surrender
01:36:46.968 : en:30. The Deal
01:39:04.480 : en:31. Ready to Move
01:40:53.798 : en:32. "You Won't Miss a Thing"
01:44:05.030 : en:33. The Chosen One
01:50:53.856 : en:34. "It's Close"
01:53:06.196 : en:35. The Package
01:56:56.635 : en:36. Envy and Wrath
02:02:00.313 : en:37. End Credits

Скриншоты


[Профиль] [ЛС]
Показать сообщения:    
Ответить на тему

Текущее время: 11-Авг 21:27

Часовой пояс: UTC + 3



Вы не можете начинать темы
Вы не можете отвечать на сообщения
Вы не можете редактировать свои сообщения
Вы не можете удалять свои сообщения
Вы не можете голосовать в опросах
Вы не можете прикреплять файлы к сообщениям
Вы не можете скачивать файлы