Алексей Брянцев - Твое дыхание - 2012, FLAC (image+.cue), lossless

Ответить на тему
Статистика раздачи
Нет
   
 
Автор Сообщение

Viktor59 ®

Стаж: 7 года 5 месяца

Сообщений: 890

Откуда: Измаил

Создавать темы 09-Мар-2013 00:04

[Цитировать]

Алексей Брянцев • Твое дыхание
Страна:
Жанр: шансон
Год издания: 2012
Издатель (лейбл): ArturMusic
Номер по каталогу: АМ КД-400
Аудиокодек: FLAC /MP3
Тип рипа: image+.cue
Битрейт аудио: lossless
Продолжительность: 51:33
Наличие сканов в содержимом раздачи: да [03:47] 01. Без нежности твоей
[04:16] 02. Любовь уходит тихо
[03:37] 03. Твое дыхание
[04:26] 04. Я не святой
[03:40] 05. Скажи, что меня ждала
[03:17] 06. Моя нечаянная радость
[03:41] 07. Жди меня
[03:42] 08. Хочу остаться песней
[03:25] 09. Я буду рядом
[04:03] 10. Ты просто замужем
[04:23] 11. Полуночный звонок
[04:13] 12. Не плачьте Натали
[04:58] 13. Волчья стая

Лог создания рипа

Exact Audio Copy V1.0 beta 3 from 29. August 2011
Отчёт EAC об извлечении, выполненном 10. октября 2012, 19:43
Алексей брянцев / Дыхание твое
Дисковод: HL-DT-STDVD-RAM GH22NP21 Adapter: 0 ID: 0
Режим чтения : Достоверность
Использование точного потока : Да
Отключение кэша аудио : Да
Использование указателей C2 : Нет
Коррекция смещения при чтении : 102
Способность читать области Lead-in и Lead-out : Нет
Заполнение пропущенных сэмплов тишиной : Да
Удаление блоков с тишиной в начале и конце : Нет
При вычислениях CRC использовались нулевые сэмплы : Да
Интерфейс : Встроенный Win32-интерфейс для Win NT/2000
Выходной формат : Пользовательский кодировщик
Выбранный битрейт : 1024 kBit/s
Качество : Высокий
Добавление ID3-тега : Нет
Утилита сжатия : C:\Program Files\Exact Audio Copy\FLAC\FLAC.EXE
Дополнительные параметры : -8 -V -T "ARTIST=%artist%" -T "TITLE=%title%" -T "ALBUM=%albumtitle%" -T "DATE=%year%" -T "TRACKNUMBER=%tracknr%" -T "GENRE=%genre%" -T "COMMENT=%comment%" %hascover%--picture="%coverfile%"%hascover% %source% -o %dest%
TOC извлечённого CD
Трек | Старт | Длительность | Начальный сектор | Конечный сектор
---------------------------------------------------------------------
1 | 0:00.00 | 3:47.26 | 0 | 17050
2 | 3:47.26 | 4:16.45 | 17051 | 36295
3 | 8:03.71 | 3:37.22 | 36296 | 52592
4 | 11:41.18 | 4:26.69 | 52593 | 72611
5 | 16:08.12 | 3:40.24 | 72612 | 89135
6 | 19:48.36 | 3:17.19 | 89136 | 103929
7 | 23:05.55 | 3:41.34 | 103930 | 120538
8 | 26:47.14 | 3:42.70 | 120539 | 137258
9 | 30:30.09 | 3:25.48 | 137259 | 152681
10 | 33:55.57 | 4:03.04 | 152682 | 170910
11 | 37:58.61 | 4:23.21 | 170911 | 190656
12 | 42:22.07 | 4:13.08 | 190657 | 209639
13 | 46:35.15 | 4:58.04 | 209640 | 231993
Характеристики диапазона извлечения и сообщения об ошибках
Выбранный диапазон
Имя файла D:\Раздачи на torrents.ru\Брянцев Алексей - Твое Дыхание (2012)\Алексей брянцев - Дыхание твое.wav
Пиковый уровень 100.0 %
Скорость извлечения 2.6 X
Качество диапазона 99.9 %
CRC теста DDAE2F8B
CRC копии DDAE2F8B
Копирование... OK
Ошибок не произошло
AccurateRip: сводка
Трек 1 отсутствует в базе данных
Трек 2 отсутствует в базе данных
Трек 3 отсутствует в базе данных
Трек 4 отсутствует в базе данных
Трек 5 отсутствует в базе данных
Трек 6 отсутствует в базе данных
Трек 7 отсутствует в базе данных
Трек 8 отсутствует в базе данных
Трек 9 отсутствует в базе данных
Трек 10 отсутствует в базе данных
Трек 11 отсутствует в базе данных
Трек 12 отсутствует в базе данных
Трек 13 отсутствует в базе данных
Ни одного трека нет в базе AccurateRip
Конец отчёта
==== Контрольная сумма отчёта C5B6E91F7716D1048B3B7FCB16AF9C9EF90FF5BEE11D25D033FBE04ECADD137A ====

Содержание индексной карты (.CUE)

REM GENRE Шансон
REM DATE 2012
REM DISCID B60C150D
REM COMMENT "ExactAudioCopy v1.0b3"
PERFORMER "Алексей брянцев"
TITLE "Дыхание твое "
FILE "Алексей брянцев - Дыхание твое.flac" WAVE
TRACK 01 AUDIO
TITLE "Без нежности твоей"
PERFORMER "Алексей брянцев"
INDEX 01 00:00:00
TRACK 02 AUDIO
TITLE "Любовь уходит тихо"
PERFORMER "Алексей брянцев"
INDEX 01 03:47:26
TRACK 03 AUDIO
TITLE "Твое дыхание"
PERFORMER "Алексей брянцев"
INDEX 01 08:03:71
TRACK 04 AUDIO
TITLE "Я не святой"
PERFORMER "Алексей брянцев"
INDEX 01 11:41:18
TRACK 05 AUDIO
TITLE "Скажи, что меня ждала"
PERFORMER "Алексей брянцев"
INDEX 01 16:08:12
TRACK 06 AUDIO
TITLE "Моя нечаянная радость"
PERFORMER "Алексей брянцев"
INDEX 01 19:48:36
TRACK 07 AUDIO
TITLE "Жди меня"
PERFORMER "Алексей брянцев"
INDEX 01 23:05:55
TRACK 08 AUDIO
TITLE "Хочу остаться песней"
PERFORMER "Алексей брянцев"
INDEX 01 26:47:14
TRACK 09 AUDIO
TITLE "Я буду рядом"
PERFORMER "Алексей брянцев"
INDEX 01 30:30:09
TRACK 10 AUDIO
TITLE "Ты просто замужем"
PERFORMER "Алексей брянцев"
INDEX 01 33:55:57
TRACK 11 AUDIO
TITLE "Полуночный звонок"
PERFORMER "Алексей брянцев"
INDEX 01 37:58:61
TRACK 12 AUDIO
TITLE "Не плачьте Натали"
PERFORMER "Алексей брянцев"
INDEX 01 42:22:07
TRACK 13 AUDIO
TITLE "Волчья стая"
PERFORMER "Алексей брянцев"
INDEX 01 46:35:15

Об исполнителе (группе)

http://www.bryancev.ru/


Последний раз редактировалось: Viktor59 (2013-03-09 19:46), всего редактировалось 8 раз(а)
[Профиль] [ЛС]

bestcooki

Стаж: 6 года 9 месяца

Сообщений: 96

Создавать темы 02-Ноя-2013 14:22 (спустя 7 месяца 24 дня)

[Цитировать]

Спасибо .
[Профиль] [ЛС]
Показать сообщения:    
Ответить на тему

Текущее время: 05-Авг 15:56

Часовой пояс: UTC + 3



Вы не можете начинать темы
Вы не можете отвечать на сообщения
Вы не можете редактировать свои сообщения
Вы не можете удалять свои сообщения
Вы не можете голосовать в опросах
Вы не можете прикреплять файлы к сообщениям
Вы не можете скачивать файлы