Отверженные / Les Miserables (Том Хупер)(2012 Мьюзикл, Драма, Мелодрама) BDRip

Ответить на тему
 
Автор Сообщение

messer20080 ®

Пол: Мужской

Стаж: 7 года 4 месяца

Сообщений: 1960

Создавать темы 12-Мар-2013 18:50

[Цитировать]

Отверженные / Les Miserables (2012) BDRip
«Борьба. Мечта. Надежда. Любовь.»
Русское название: Отверженные
Оригинальное название: Les Miserables
Год выпуска: 2012
Производство: США, Великобритания
Жанр: Мьюзикл, Драма, Мелодрама
Перевод: Любительский (двухголосый закадровый) |Сладкая Парочка|
Cубтитры: Отсутствуют
Дата мировой премьеры: 5 декабря 2012
Дата российской премьеры: 7 февраля 2013
Дата выхода DVD релиза: 25 апреля 2013, «Двадцатый Век Фокс СНГ»
Режиссер: Том Хупер / Tom Hooper
Актеры:
Хью Джекман (Jean Valjean), Рассел Кроу (Javert), Энн Хэтэуэй (Fantine), Аманда Сайфред (Cosette), Эдди Редмэйн (Marius), Хелена Бонем Картер, Саша Барон Коэн, Аарон Твейт (Enjolras), Саманта Баркс, Дэниэл Хаттлстоун (Gavroche), Изабелль Аллен (Young Cosette), Наталья Энджел Уоллес
Описание фильма:
Действие развивается в начале XIX столетия. Беглый каторжник Жан Вальжан, приговоренный к тюремному заключению, вынужден долгие годы скрываться от жестокого правосудия. Инспектор парижской полиции Жавер считает его поимку делом всей своей жизни. После смерти Фантины — женщины, за судьбу которой Жан Вальжан считал себя в ответе, — единственным близким ему человеком остается ее дочь Козетта. Ради счастья девушки Жан готов на все.
[kp]http://www.kinopoisk.ru/film/566055/[/kp] [imdb]http://www.imdb.com/title/tt1707386/[/imdb]
Релиз от:
Автор рипа: Yarmak23
Продолжительность: 02:37:54
Качество видео: BDRip |исходник: Blu-ray / 1080p / -PublicHD|
Формат: AVI
Видео: 704x384 (1.85:1), 23.976 fps, XviD 65 ~1184 kbps avg, 0.183 bit/pixel
Аудио: 48 kHz, MPEG Layer 3, 2 ch, 128.00 kbps Constant |Двухголосый закадровый, Сладкая Парочка|

MediaInfo

General
Complete name : D:\Otverzhennye.2012.L2.BDRip.1.45GB_messer20080.avi
Format : AVI
Format/Info : Audio Video Interleave
File size : 1.46 GiB
Duration : 2h 37mn
Overall bit rate : 1 321 Kbps
Writing application : VirtualDubModRus 1.5.10.2 (build 2542/release)
Writing library : VirtualDubMod build 2542/release
Video
ID : 0
Format : MPEG-4 Visual
Format profile : Advanced Simple@L5
Format settings, BVOP : 1
Format settings, QPel : No
Format settings, GMC : No warppoints
Format settings, Matrix : Custom
Codec ID : XVID
Codec ID/Hint : XviD
Duration : 2h 37mn
Bit rate : 1 184 Kbps
Width : 704 pixels
Height : 384 pixels
Display aspect ratio : 1.85:1
Frame rate : 23.976 fps
Color space : YUV
Chroma subsampling : 4:2:0
Bit depth : 8 bits
Scan type : Progressive
Compression mode : Lossy
Bits/(Pixel*Frame) : 0.183
Stream size : 1.31 GiB (90%)
Writing library : XviD 65
Audio
ID : 1
Format : MPEG Audio
Format version : Version 1
Format profile : Layer 3
Mode : Joint stereo
Mode extension : MS Stereo
Codec ID : 55
Codec ID/Hint : MP3
Duration : 2h 37mn
Bit rate mode : Constant
Bit rate : 128 Kbps
Channel(s) : 2 channels
Sampling rate : 48.0 KHz
Compression mode : Lossy
Stream size : 145 MiB (10%)
Alignment : Aligned on interleaves
Interleave, duration : 42 ms (1.00 video frame)
Interleave, preload duration : 504 ms
Writing library : LAMEUUяяяЭxТ)”‘™й

Скриншоты



Последний раз редактировалось: messer20080 (2013-04-24 16:27), всего редактировалось 3 раз(а)
[Профиль] [ЛС]

Создавать темы 18-Мар-2013 16:47 (спустя 5 дня)

Топик был перенесен из форума Кино 2009-2012гг. в форум HD Rips

crown
 

Создавать темы 10-Авг-2013 19:02 (спустя 4 месяца 29 дня)

Топик был перенесен из форума HD Rips в форум Зарубежное кино

messer20080
 
Показать сообщения:    
Ответить на тему

Текущее время: 04-Июл 09:11

Часовой пояс: UTC + 3



Вы не можете начинать темы
Вы не можете отвечать на сообщения
Вы не можете редактировать свои сообщения
Вы не можете удалять свои сообщения
Вы не можете голосовать в опросах
Вы не можете прикреплять файлы к сообщениям
Вы не можете скачивать файлы