Джек Ричер / Jack Reacher (Кристофер МакКуорри)( Боевик, триллер, криминал, детектив 2012) BDRip 720p Line

Ответить на тему
 
Автор Сообщение

messer20080 ®

Пол: Мужской

Стаж: 7 года 4 месяца

Сообщений: 1960

Создавать темы 19-Апр-2013 16:56

[Цитировать]

Джек Ричер / Jack Reacher Русское название: Джек Ричер
Оригинальное название: Jack Reacher
Год выпуска: 2012
Производство: США / Mutual Film Company, Paramount Pictures, Skydance Productions
Жанр: Боевик, триллер, криминал, детектив
Перевод: Дублированный [Чистый звук]
Язык субтитров: Английский [Full, SDH]
Субтитры: Вшитые отключаемые

Режиссер:
Кристофер МакКуорри
Актеры: Том Круз, Розамунд Пайк, Ричард Дженкинс, Вернер Херцог, Дэвид Ойелоуо, Роберт Дюваль, Джей Кортни, Владимир Сизов, Джозеф Сикора, Майкл Рэймонд-Джеймс
Описание фильма:
Снайпер убивает пять случайных прохожих, но все улики указывают на человека, заключенного под стражу. На допросе подозреваемый умоляет об одном — найти Джека Ричера.-[imdb]http://www.imdb.com/title/tt0790724/?ref_=fn_al_tt_1[/imdb] [kp]http://www.kinopoisk.ru/film/417583/[/kp]
Релиз группа:
Дата мировой премьеры: 20 декабря 2012
Дата российской премьеры: 10 января 2013, «Централ Партнершип»
Дата выхода DVD релиза: 13 мая 2013, «Новый Диск»
Дата выхода Blu-Ray релиза: 13 мая 2013, «Новый Диск»
Продолжительность: 02:10:24
Качество видео: BDRip [720p]

МедиаИнфо

D:\Авит\Jack.Reacher.2012.D.BDRip.720p.avit.messer.mkv
General
Unique ID : 209573932208848634967427695763725225571 (0x9DAA789DF7CE1C3188E0C69367C40E63)
Complete name : D:\Авит\Jack.Reacher.2012.D.BDRip.720p.avit.messer.mkv
Format : Matroska
Format version : Version 4 / Version 2
File size : 5.87 GiB
Duration : 2h 10mn
Overall bit rate : 6 447 Kbps
Encoded date : UTC 2013-04-19 15:32:16
Writing application : mkvmerge v6.1.0 ('Old Devil') built on Mar 2 2013 14:32:37
Writing library : libebml v1.3.0 + libmatroska v1.4.0
Video #1
ID : 1
Format : AVC
Format/Info : Advanced Video Codec
Format profile : High@L4.1
Format settings, CABAC : Yes
Format settings, ReFrames : 5 frames
Codec ID : V_MPEG4/ISO/AVC
Duration : 2h 10mn
Bit rate : 4 489 Kbps
Width : 1 280 pixels
Height : 544 pixels
Display aspect ratio : 2.35:1
Frame rate mode : Constant
Frame rate : 23.976 fps
Color space : YUV
Chroma subsampling : 4:2:0
Bit depth : 8 bits
Scan type : Progressive
Bits/(Pixel*Frame) : 0.269
Stream size : 3.97 GiB (68%)
Title : Jack.Reacher.2012.720p.BluRay.X264-AMIABLE
Writing library : x264 core 130 r2273 b3065e6
Encoding settings : cabac=1 / ref=5 / deblock=1:-3:-3 / analyse=0x3:0x113 / me=umh / subme=8 / psy=1 / psy_rd=1.00:0.00 / mixed_ref=1 / me_range=16 / chroma_me=1 / trellis=1 / 8x8dct=1 / cqm=0 / deadzone=21,11 / fast_pskip=1 / chroma_qp_offset=-2 / threads=12 / lookahead_threads=2 / sliced_threads=0 / nr=0 / decimate=1 / interlaced=0 / bluray_compat=0 / constrained_intra=0 / bframes=3 / b_pyramid=2 / b_adapt=2 / b_bias=0 / direct=3 / weightb=1 / open_gop=0 / weightp=2 / keyint=240 / keyint_min=24 / scenecut=40 / intra_refresh=0 / rc_lookahead=50 / rc=2pass / mbtree=1 / bitrate=4489 / ratetol=1.0 / qcomp=0.60 / qpmin=0 / qpmax=69 / qpstep=4 / cplxblur=20.0 / qblur=0.5 / ip_ratio=1.40 / aq=1:1.00
Language : English
Default : Yes
Forced : Yes
Audio #2
ID : 2
Format : AC-3
Format/Info : Audio Coding 3
Mode extension : CM (complete main)
Format settings, Endianness : Big
Codec ID : A_AC3
Duration : 2h 10mn
Bit rate mode : Constant
Bit rate : 448 Kbps
Channel(s) : 6 channels
Channel positions : Front: L C R, Side: L R, LFE
Sampling rate : 48.0 KHz
Bit depth : 16 bits
Compression mode : Lossy
Stream size : 418 MiB (7%)
Title : DD 5.1 @ 448 kbps - Dub
Language : Russian
Default : Yes
Forced : Yes
Audio #3
ID : 3
Format : DTS
Format/Info : Digital Theater Systems
Mode : 16
Format settings, Endianness : Big
Codec ID : A_DTS
Duration : 2h 10mn
Bit rate mode : Constant
Bit rate : 1 509 Kbps
Channel(s) : 6 channels
Channel positions : Front: L C R, Side: L R, LFE
Sampling rate : 48.0 KHz
Bit depth : 24 bits
Compression mode : Lossy
Stream size : 1.37 GiB (23%)
Title : DTS 5.1 @ 1536 kbps
Language : English
Default : No
Forced : No
Text #4
ID : 4
Format : UTF-8
Codec ID : S_TEXT/UTF8
Codec ID/Info : UTF-8 Plain Text
Language : English
Default : No
Forced : No
Text #5
ID : 5
Format : UTF-8
Codec ID : S_TEXT/UTF8
Codec ID/Info : UTF-8 Plain Text
Title : SDH
Language : English
Default : No
Forced : No

Скриншоты

Видеокодек: MPEG-4 AVC/H.264
Битрейт видео: ~4489 Kb/s
Частота кадра: 23.976 fps
Размер кадра: 1280x544
Аудио 1: AC3, 6 ch, 448 Кбит/с (Дубляж, Русский)
Аудио 2: DTS, 6 ch, 1536 Кбит/с (Английский, Оригинал)
Дополнительно: Сохранены оригинальные чапреты как на Blu-Ray


Последний раз редактировалось: messer20080 (2013-10-30 14:57), всего редактировалось 14 раз(а)
[Профиль] [ЛС]

messer20080 ®

Пол: Мужской

Стаж: 7 года 4 месяца

Сообщений: 1960

Создавать темы 19-Апр-2013 17:06 (спустя 9 минуты)

[Цитировать]

Ничего так фильмец, на твердую 4+
[Профиль] [ЛС]
Показать сообщения:    
Ответить на тему

Текущее время: 04-Июл 09:21

Часовой пояс: UTC + 3



Вы не можете начинать темы
Вы не можете отвечать на сообщения
Вы не можете редактировать свои сообщения
Вы не можете удалять свои сообщения
Вы не можете голосовать в опросах
Вы не можете прикреплять файлы к сообщениям
Вы не можете скачивать файлы