Должник / The Liability (Крэйг Вивейрос)(2012 Триллер, Криминал) WEB-DLRip [H.264/720p-LQ]

Ответить на тему
Статистика раздачи
Нет
   
 
Автор Сообщение

messer20080 ®

Стаж: 7 года 6 месяца

Сообщений: 1950

Создавать темы 22-Апр-2013 21:01

[Цитировать]


Должник / The Liability (2012) WEB-DLRip
Русское название: Должник
Оригинальное название: The Liability
Год выпуска: 2012
Производство: Великобритания / Corona Pictures
Жанр: Триллер, Криминал
Перевод: Двуголосый закадровый, профессиональный [НТВ+] / Одноголосый закадровый
Субтитры: Русские, английские
Вид субтитров: Вшитые, отключаемые5
Продолжительность: 01:26:06
Дата мировой премьеры: 24 ноября 2012
Режиссер: Крэйг Вивейрос
Продюсер: Руперт Джермин, Ричард Джонс, Ли Брейзиер
Актеры: Тим Рот, Джек О’Коннелл, Талула Райли, Питер Муллан, Фэй Вэрэйнг, Кристофер Хатрэлл, Дженни Пайк, Джек МакБрайд, Клив Шоу, Энди МакАдам
Описание фильма:
Когда 19-летний Адам соглашается на работу, предложенную хитроумным гангстером и его отчимом Питером, это обрекает парня на 24 часовое путешествие в кошмарный мир убийств, секс-торговли и мести в компании убийцы Роя.

[kp]http://www.kinopoisk.ru/film/634253/[/kp] [imdb]http://www.imdb.com/title/tt2081437/[/imdb]

МедиаИнфо

General
Unique ID : 244931568898421563470253030140769467103 (0xB8441AB288DA7364BBC5F25C0A7FFADF)
Complete name : D:\Авит\The.Liability.2012.WEB-DL.720p.avit.messer.mkv
Format : Matroska
Format version : Version 4 / Version 2
File size : 3.20 GiB
Duration : 1h 26mn
Overall bit rate : 5 326 Kbps
Movie name : J.C.@NGB
Encoded date : UTC 2013-04-20 23:38:07
Writing application : mkvmerge v6.1.0 ('Old Devil') built on Mar 31 2013 15:21:18
Writing library : libebml v1.3.0 + libmatroska v1.4.0
Video
ID : 1
Format : AVC
Format/Info : Advanced Video Codec
Format profile : Main@L3.1
Format settings, CABAC : No
Format settings, ReFrames : 2 frames
Codec ID : V_MPEG4/ISO/AVC
Duration : 1h 26mn
Bit rate : 3 876 Kbps
Width : 1 280 pixels
Height : 530 pixels
Display aspect ratio : 2.40:1
Frame rate mode : Constant
Frame rate : 23.976 fps
Color space : YUV
Chroma subsampling : 4:2:0
Bit depth : 8 bits
Scan type : Progressive
Bits/(Pixel*Frame) : 0.238
Stream size : 2.33 GiB (73%)
Title : J.C.@NGB
Language : English
Default : Yes
Forced : No
Color primaries : BT.709
Transfer characteristics : BT.709
Matrix coefficients : BT.709
Audio #1
ID : 2
Format : AC-3
Format/Info : Audio Coding 3
Mode extension : CM (complete main)
Format settings, Endianness : Big
Codec ID : A_AC3
Duration : 1h 26mn
Bit rate mode : Constant
Bit rate : 384 Kbps
Channel(s) : 6 channels
Channel positions : Front: L C R, Side: L R, LFE
Sampling rate : 48.0 KHz
Bit depth : 16 bits
Compression mode : Lossy
Stream size : 236 MiB (7%)
Title : den904
Language : Russian
Default : No
Forced : No
Audio #2
ID : 3
Format : AC-3
Format/Info : Audio Coding 3
Mode extension : CM (complete main)
Format settings, Endianness : Big
Codec ID : A_AC3
Duration : 1h 26mn
Bit rate mode : Constant
Bit rate : 384 Kbps
Channel(s) : 6 channels
Channel positions : Front: L C R, Side: L R, LFE
Sampling rate : 48.0 KHz
Bit depth : 16 bits
Compression mode : Lossy
Stream size : 236 MiB (7%)
Title : A.Киреев
Language : Russian
Default : No
Forced : No
Audio #3
ID : 4
Format : AC-3
Format/Info : Audio Coding 3
Mode extension : CM (complete main)
Format settings, Endianness : Big
Codec ID : A_AC3
Duration : 1h 26mn
Bit rate mode : Constant
Bit rate : 192 Kbps
Channel(s) : 2 channels
Channel positions : Front: L R
Sampling rate : 48.0 KHz
Bit depth : 16 bits
Compression mode : Lossy
Stream size : 118 MiB (4%)
Title : Нтв+
Language : Russian
Default : No
Forced : No
Audio #4
ID : 5
Format : AC-3
Format/Info : Audio Coding 3
Mode extension : CM (complete main)
Format settings, Endianness : Big
Codec ID : A_AC3
Duration : 1h 26mn
Bit rate mode : Constant
Bit rate : 384 Kbps
Channel(s) : 6 channels
Channel positions : Front: L C R, Side: L R, LFE
Sampling rate : 48.0 KHz
Bit depth : 16 bits
Compression mode : Lossy
Stream size : 236 MiB (7%)
Language : English
Default : Yes
Forced : No
Text #1
ID : 6
Format : UTF-8
Codec ID : S_TEXT/UTF8
Codec ID/Info : UTF-8 Plain Text
Language : Russian
Default : Yes
Forced : No
Text #2
ID : 7
Format : UTF-8
Codec ID : S_TEXT/UTF8
Codec ID/Info : UTF-8 Plain Text
Language : English
Default : No
Forced : No
Menu
00:00:00.000 : en:1
00:04:09.000 : en:2
00:11:03.000 : en:3
00:22:06.000 : en:4
00:30:00.000 : en:5
00:40:18.000 : en:6
00:49:51.000 : en:7
00:57:15.000 : en:8
01:04:58.000 : en:9
01:14:16.000 : en:10
01:23:48.000 : en:11

Скриншоты

Качество видео: WEB-DLRip Видеокодек: MPEG-4 AVC/H.264
Битрейт видео: ~3876 Кбит/с
Размер кадра: 1280x530
Частота кадра: 23.976 fps
Аудио#1: Русский (AC3, 6 ch, 384 Кбит/с) - авторский одноголосый (A.Киреев)
Аудио#2: Русский (AC3, 2 ch, 192 Кбит/с) - професиональный двухголосный (НТВ+)
Аудио#3: Русский (AC3, 6 ch, 384 Кбит/с) - любительский одноголосый (den904)
Аудио#4: Английский (AC3, 6 ch, 384 Кбит/с)
[Профиль] [ЛС]
Показать сообщения:    
Ответить на тему

Текущее время: 23-Сен 09:19

Часовой пояс: UTC + 3



Вы не можете начинать темы
Вы не можете отвечать на сообщения
Вы не можете редактировать свои сообщения
Вы не можете удалять свои сообщения
Вы не можете голосовать в опросах
Вы не можете прикреплять файлы к сообщениям
Вы не можете скачивать файлы