Возвращение героя / The Last Stand ( Боевик, Триллер, Криминал 2013) BDRip [H.264/720р-LQ]

Ответить на тему
 
Автор Сообщение

messer20080 ®

Пол: Мужской

Стаж: 7 года 3 месяца

Сообщений: 1960

Создавать темы 26-Апр-2013 20:58

[Цитировать]

Возвращение героя / The Last Stand (2013) BDRip Русское название: Возвращение героя
Оригинальное название: The Last Stand
Год выпуска: 2013
Производство: США / Di Bonaventura Pictures
Жанр: Боевик, Триллер, Криминал
Перевод: Дублированный (Лицензия)
Вид субтитров: (srt): Вшитые (по умолчанию отключены)
Язык субтитров: Русский
Режиссер: Ким Чжи-ун
Продюсер: Лоренцо Ди Бонавентура, Эдвард Фи, Мики Ли
Актеры: Арнольд Шварценеггер, Форест Уитакер, Джонни Ноксвил, Родриго Санторо, Джейми Александр, Луис Гузман, Эдуардо Норьега, Петер Стормаре, Зэк Гилфорд, Генезис Родригез

Описание фильма:

Прихватив заложника, они мчатся к мексиканской границе на бронированной, оснащенной первоклассным вооружением машине. У них на пути стоит лишь тихий городок, за порядком в котором следит шериф Оуенс. Когда-то он был одним из лучших полицейских Лос-Анджелеса, теперь он вернулся.
Дата мировой премьеры: 12 января 2013
Дата российской премьеры: 21 февраля 2013, «UPI», «Премиум Фильм»
Дата выхода DVD релиза: 25 апреля 2013, «CP Дистрибуция»
Дата выхода Blu-Ray релиза: 25 апреля 2013, «CP Дистрибуция»
-
]

МедиаИнфо

General
Unique ID : 231574866591554283843687425900234395036 (0xAE37B26E2C6F895CB4A9F6AEA40BCD9C)
Complete name : D:\Возвращение героя - The Last Stand.2013.BDRip.720p.avit.messer\Возвращение героя - The Last Stand.2013.BDRip.720p.NNM-CLUB.mkv
Format : Matroska
Format version : Version 2
File size : 2.18 GiB
Duration : 1h 47mn
Overall bit rate : 2 911 Kbps
Movie name : Возвращение героя - The Last Stand.2013.BDRip.720p.NNM-CLUB
Encoded date : UTC 2013-04-22 08:17:26
Writing application : mkvmerge v5.8.0 ('No Sleep / Pillow') built on Sep 2 2012 15:37:04
Writing library : libebml v1.2.3 + libmatroska v1.3.0
Video
ID : 1
Format : AVC
Format/Info : Advanced Video Codec
Format profile : High@L4.1
Format settings, CABAC : Yes
Format settings, ReFrames : 8 frames
Codec ID : V_MPEG4/ISO/AVC
Duration : 1h 47mn
Bit rate : 2 463 Kbps
Width : 1 280 pixels
Height : 536 pixels
Display aspect ratio : 2.40:1
Frame rate mode : Constant
Frame rate : 24.000 fps
Color space : YUV
Chroma subsampling : 4:2:0
Bit depth : 8 bits
Scan type : Progressive
Bits/(Pixel*Frame) : 0.150
Stream size : 1.80 GiB (83%)
Title : Возвращение героя - The Last Stand.2013.BDRip.720p.NNM-CLUB
Writing library : x264 core 130 r2273 b3065e6
Encoding settings : cabac=1 / ref=8 / deblock=1:-3:-3 / analyse=0x3:0x133 / me=umh / subme=10 / psy=1 / psy_rd=1.00:0.15 / mixed_ref=1 / me_range=24 / chroma_me=1 / trellis=2 / 8x8dct=1 / cqm=0 / deadzone=21,11 / fast_pskip=0 / chroma_qp_offset=-3 / threads=12 / lookahead_threads=3 / sliced_threads=0 / nr=0 / decimate=1 / interlaced=0 / bluray_compat=0 / constrained_intra=0 / bframes=10 / b_pyramid=2 / b_adapt=2 / b_bias=0 / direct=3 / weightb=1 / open_gop=0 / weightp=2 / keyint=240 / keyint_min=22 / scenecut=40 / intra_refresh=0 / rc_lookahead=40 / rc=2pass / mbtree=1 / bitrate=2463 / ratetol=1.0 / qcomp=0.60 / qpmin=0 / qpmax=69 / qpstep=4 / cplxblur=20.0 / qblur=0.5 / vbv_maxrate=62500 / vbv_bufsize=78125 / nal_hrd=none / ip_ratio=1.40 / aq=1:0.90
Language : English
Default : Yes
Forced : No
Audio
ID : 2
Format : AC-3
Format/Info : Audio Coding 3
Mode extension : CM (complete main)
Format settings, Endianness : Big
Codec ID : A_AC3
Duration : 1h 47mn
Bit rate mode : Constant
Bit rate : 448 Kbps
Channel(s) : 2 channels
Channel positions : Front: L R
Sampling rate : 48.0 KHz
Bit depth : 16 bits
Compression mode : Lossy
Stream size : 343 MiB (15%)
Title : Дублированный
Language : Russian
Default : Yes
Forced : No
Text
ID : 3
Format : UTF-8
Codec ID : S_TEXT/UTF8
Codec ID/Info : UTF-8 Plain Text
Language : Russian
Default : No
Forced : No
Menu
00:00:00.000 : en:Chapter 01
00:05:50.791 : en:Chapter 02
00:13:07.375 : en:Chapter 03
00:22:35.083 : en:Chapter 04
00:32:58.791 : en:Chapter 05
00:41:50.166 : en:Chapter 06
00:48:05.750 : en:Chapter 07
00:57:00.208 : en:Chapter 08
01:07:55.291 : en:Chapter 09
01:15:02.125 : en:Chapter 10
01:22:42.458 : en:Chapter 11
01:27:25.833 : en:Chapter 12
Продолжительность: 01:47:03
Качество видео: BDRip
Видеокодек: MPEG-4 AVC/H.264
Битрейт видео: ~ 2463 kbit/s
Размер кадра: 1280x536
Аудио 1: Русский: AC3 5.1, 448 Kbps, 48000 Hz
Аудио 2: Английский: AC3 5.1, 448 Kbps, 48000 Hz (отдельным файлом)
[Профиль] [ЛС]
Показать сообщения:    
Ответить на тему

Текущее время: 02-Июл 11:33

Часовой пояс: UTC + 3



Вы не можете начинать темы
Вы не можете отвечать на сообщения
Вы не можете редактировать свои сообщения
Вы не можете удалять свои сообщения
Вы не можете голосовать в опросах
Вы не можете прикреплять файлы к сообщениям
Вы не можете скачивать файлы