Самый быстрый «Индиан» / The World's Fastest Indian (Роджер Дональдсон / Roger Donaldson) [2005, драма, биография, спорт] BDRip 720p

Ответить на тему
 
Автор Сообщение

messer20080 ®

Пол: Мужской

Стаж: 7 года 4 месяца

Сообщений: 1960

Создавать темы 28-Апр-2013 21:56

[Цитировать]

Самый быстрый «Индиан» / The World's Fastest Indian- -Год выпуска: 2005
Страна: США, Япония, Швейцария, Новая Зеландия
Жанр: драма, биография, спорт
Продолжительность: 02:07:00
Перевод: Профессиональный (полное дублирование)
Субтитры: Русский, English, вшитые отключаемые
Режиссер: Роджер Дональдсон / Roger Donaldson
В ролях: Энтони Хопкинс, Айэйн Ри, Тесса Митчел, Аарон Мерфи, Тим Шэдболт, Энни Уиттл, Грег Джонсон, Энтони Старр, Кейт Салливан, Крэйг Холл и др.
Описание: Фильм рассказывает об истории жизни знаменитого новозеландца Берта Монро, который потратил десятилетия жизни на переоснащение своего любимого мотоцикла марки «Индиан» 1920 года выпуска с максимальной скоростью в 58 миль/ч в гоночный болид для установления рекорда скорости. И официальный рекорд (200 миль/ч) в конце концов был установлен! Это случилось в 1967 году…-[kp]http://www.kinopoisk.ru/film/81512/[/kp] [imdb]http://www.imdb.com/title/tt0412080/[/imdb]

Качество: BDRip
Формат: MKV
Видео кодек: H.264
Аудио кодек: AC3, DTS
Видео: 1280x720, 23.976 fps, ~6805 kbps, High@L4.1 (от HDBRiSe)
Аудио#1: Русский DD 5.1, 48 kHz, 3/2 (L,C,R,l,r) + LFE ch, 448 kbps
Аудио#2: English DTS, 3/2 (L,C,R,l,r) + LFE ch, 48 kHz, 1536 kbps-

МедиаИнфо

General
Unique ID : 223363067958744400344348303623797919701 (0xA80A297FB9DDBDF0AED3D3D68AD4CFD5)
Complete name : D:\The.World's.Fastest.Indian.2005.BDRip.720p.(RUS.ENG.SUB).x264-GP.mkv
Format : Matroska
Format version : Version 2
File size : 7.78 GiB
Duration : 2h 7mn
Overall bit rate : 8 764 Kbps
Movie name : The World's Fastest Indian (2005) by GarantP
Encoded date : UTC 2009-08-25 21:04:24
Writing application : mkvmerge v2.9.8 ('C'est le bon') built on Aug 13 2009 12:49:06
Writing library : libebml v0.7.7 + libmatroska v0.8.1
Video
ID : 1
Format : AVC
Format/Info : Advanced Video Codec
Format profile : High@L4.1
Format settings, CABAC : Yes
Format settings, ReFrames : 4 frames
Codec ID : V_MPEG4/ISO/AVC
Duration : 2h 7mn
Bit rate : 6 805 Kbps
Width : 1 280 pixels
Height : 720 pixels
Display aspect ratio : 16:9
Frame rate mode : Constant
Frame rate : 23.976 fps
Color space : YUV
Chroma subsampling : 4:2:0
Bit depth : 8 bits
Scan type : Progressive
Bits/(Pixel*Frame) : 0.308
Stream size : 5.88 GiB (76%)
Title : The World's Fastest Indian (2005)
Writing library : x264 core 68 r1183M f21daff
Encoding settings : cabac=1 / ref=4 / deblock=1:-3:-3 / analyse=0x3:0x113 / me=umh / subme=7 / psy_rd=1.0:0.0 / mixed_ref=1 / me_range=16 / chroma_me=1 / trellis=1 / 8x8dct=1 / cqm=0 / deadzone=21,11 / chroma_qp_offset=-2 / threads=3 / nr=0 / decimate=1 / mbaff=0 / bframes=3 / b_pyramid=1 / b_adapt=1 / b_bias=0 / direct=3 / wpredb=1 / keyint=250 / keyint_min=25 / scenecut=40 / rc=2pass / bitrate=6805 / ratetol=1.0 / qcomp=0.60 / qpmin=10 / qpmax=51 / qpstep=4 / cplxblur=20.0 / qblur=0.5 / ip_ratio=1.40 / pb_ratio=1.30 / aq=1:1.00
Language : English
Default : Yes
Forced : No
Audio #1
ID : 2
Format : AC-3
Format/Info : Audio Coding 3
Mode extension : CM (complete main)
Format settings, Endianness : Big
Codec ID : A_AC3
Duration : 2h 7mn
Bit rate mode : Constant
Bit rate : 448 Kbps
Channel(s) : 6 channels
Channel positions : Front: L C R, Side: L R, LFE
Sampling rate : 48.0 KHz
Bit depth : 16 bits
Compression mode : Lossy
Stream size : 407 MiB (5%)
Language : Russian
Default : Yes
Forced : No
Audio #2
ID : 3
Format : DTS
Format/Info : Digital Theater Systems
Mode : 16
Format settings, Endianness : Big
Codec ID : A_DTS
Duration : 2h 7mn
Bit rate mode : Constant
Bit rate : 1 509 Kbps
Channel(s) : 6 channels
Channel positions : Front: L C R, Side: L R, LFE
Sampling rate : 48.0 KHz
Bit depth : 24 bits
Compression mode : Lossy
Stream size : 1.34 GiB (17%)
Language : English
Default : No
Forced : No
Text #1
ID : 4
Format : UTF-8
Codec ID : S_TEXT/UTF8
Codec ID/Info : UTF-8 Plain Text
Language : Russian
Default : No
Forced : No
Text #2
ID : 5
Format : UTF-8
Codec ID : S_TEXT/UTF8
Codec ID/Info : UTF-8 Plain Text
Language : English
Default : No
Forced : No
- - -
[Профиль] [ЛС]
Показать сообщения:    
Ответить на тему

Текущее время: 04-Июл 20:19

Часовой пояс: UTC + 3



Вы не можете начинать темы
Вы не можете отвечать на сообщения
Вы не можете редактировать свои сообщения
Вы не можете удалять свои сообщения
Вы не можете голосовать в опросах
Вы не можете прикреплять файлы к сообщениям
Вы не можете скачивать файлы