Оз: Великий и Ужасный / Oz the Great and Powerful(Сэм Рэйми) (2013 Фэнтези, Приключения, )HDRip [Line]

Ответить на тему
 
Автор Сообщение

messer20080 ®

Пол: Мужской

Стаж: 7 года 4 месяца

Сообщений: 1960

Создавать темы 26-Май-2013 19:13

[Цитировать]

Оз: Великий и Ужасный / Oz the Great and Powerful
Русское название: Оз: Великий и Ужасный
Оригинальное название: Oz the Great and Powerful
Год выпуска: 2013
Производство: США / Roth Films, Walt Disney Pictures
Жанр: Фэнтези, Приключения, Комедия, Семейный
Перевод: Дублированный [чистый звук]
Субтитры: Отсутствуют
Дата мировой премьеры: 14 февраля 2013
Дата российской премьеры: 7 марта 2013, «WDSSPR»
Дата выхода DVD релиза: 6 августа 2013, «Уолт Дисней Компани СНГ»
Режиссер: Сэм Рэйми
Продюсер: Джо Рот, Дэбби Босси, Грант Кертис
Актеры: Джеймс Франко, Мила Кунис, Рейчел Вайс, Мишель Уильямс, Зак Брафф, Билл Коббс, Джои Кинг, Тони Кокс, Стивен Р. Харт, Эбигейл Спенсер..
Описание фильма:
Когда ураган забрасывает циркового фокусника Оскара Диггса из пыльного Канзаса в волшебную страну Оз, склонный к мошенничеству циркач полагает, что он поймал удачу за хвост — ведь с помощью своих трюков он с легкостью может добыть в новых землях и славу и богатство.
В ситуации выбора между Добром и Злом, Оскару Диггсу предстоит не только стать Великим и Ужасным Волшебником из Страны Оз, но и немного измениться к лучшему.
[kp]http://www.kinopoisk.ru/film/506005/[/kp] [imdb]http://www.imdb.com/title/tt1623205/[/imdb]
Продолжительность: 02:10:29
Качество видео: HDRip [Рип с BDRip 720p]
Видеокодек: Xvid
Битрейт видео: ~1140 Kbps 23.98 fps
Размер кадра: 720x304
Аудиокодек: AC3 5.1
Битрейт аудио: 448 Kbps 48000 Hz
Частота кадров: 23,976 fps

МедиаИнфо

Общее
Полное имя : D:\Oz.velikij.i.ujasniy.2013.HDRip.avit.meser.avi
Формат : AVI
Формат/Информация : Audio Video Interleave
Размер файла : 1,46 Гбайт
Продолжительность : 2 ч. 10 м.
Общий поток : 1598 Кбит/сек
Программа кодирования : VirtualDubMod 1.5.10.2 (build 2540/release)
Библиотека кодирования : VirtualDubMod build 2540/release
Видео
Идентификатор : 0
Формат : MPEG-4 Visual
Профиль формата : Advanced Simple@L5
Параметр BVOP формата : 2
Параметр QPel формата : Нет
Параметр GMC формата : Без точки перехода
Параметр матрицы формата : Default (MPEG)
Идентификатор кодека : XVID
Идентификатор кодека/Подсказка : XviD
Продолжительность : 2 ч. 10 м.
Битрейт : 1141 Кбит/сек
Ширина : 720 пикселей
Высота : 304 пикселя
Соотношение сторон : 2,35:1
Частота кадров : 23,976 кадра/сек
Цветовое пространство : YUV
Субдискретизация насыщенности : 4:2:0
Битовая глубина : 8 бит
Тип развёртки : Прогрессивная
Метод сжатия : С потерями
Бит/(Пиксели*Кадры) : 0.217
Размер потока : 1,04 Гбайт (71%)
Библиотека кодирования : XviD 1.2.1 (UTC 2008-12-04)
Аудио
Идентификатор : 1
Формат : AC-3
Формат/Информация : Audio Coding 3
Расширение режима : CM (complete main)
Параметр Endianness формата : Big
Идентификатор кодека : 2000
Продолжительность : 2 ч. 10 м.
Вид битрейта : Постоянный
Битрейт : 448 Кбит/сек
Каналы : 6 каналов
Расположение каналов : Front: L C R, Side: L R, LFE
Частота : 48,0 КГц
Битовая глубина : 16 бит
Метод сжатия : С потерями
Размер потока : 418 Мбайт (28%)
Выравнивание : Разделение по промежуткам
Продолжительность промежутка : 42 мс. (1,00 видеокадр)
Время предзагрузки промежутка : 500 мс.


Последний раз редактировалось: messer20080 (2013-10-30 15:06), всего редактировалось 1 раз
[Профиль] [ЛС]

Создавать темы 10-Авг-2013 19:02 (спустя 2 месяца 14 дня)

Топик был перенесен из форума HD Rips в форум Зарубежное кино

messer20080
 

bestcooki

Пол: Мужской

Стаж: 6 года 8 месяца

Сообщений: 96

Создавать темы 27-Окт-2013 18:33 (спустя 5 месяца)

[Цитировать]

Спасибки !
[Профиль] [ЛС]
Показать сообщения:    
Ответить на тему

Текущее время: 13-Июл 14:44

Часовой пояс: UTC + 3



Вы не можете начинать темы
Вы не можете отвечать на сообщения
Вы не можете редактировать свои сообщения
Вы не можете удалять свои сообщения
Вы не можете голосовать в опросах
Вы не можете прикреплять файлы к сообщениям
Вы не можете скачивать файлы