Возвращение Буратино (Екатерина Михайлова)(2013, фэнтези, семейный) BDRip [H.264/720p-LQ]

Ответить на тему
Статистика раздачи
Нет
   
 
Автор Сообщение

messer20080 ®

Стаж: 7 года 6 месяца

Сообщений: 1950

Создавать темы 28-Май-2013 16:36

[Цитировать]

Возвращение Буратино-«Трогательный мир забытых игрушек»- Русское название: Возвращение Буратино
Жанр: фэнтези, семейный
Год выпуска: 2013
Производство: Анимос, United Multimedia Projects
Страна: Россия
Перевод: оригинал (лицензия)
Описание:
В современной нам Москве Карабас-Барабас, сменив имидж и имя, открывает фабрику-конвейер по производству игрушек. В цехах высотного здания из «сырья» — старых игрушек всех сортов и форм, — производятся две «инновационные» унифицированные модели: робот Зубастик для мальчиков и кукла Гламушка для девочек. Господин Баскара — так сейчас следует называть Карабаса, — уверен, что будущее (и огромные прибыли!) — именно за его моделями.
Режиссер: Екатерина Михайлова
Персонажы: Олег Табаков, Оскар Кучера, Нонна Гришаева, Полина Кутепова, Ольга Прокофьева, Борис Смолкин, Леонид Якубович, Гоша Куценко, Ольга Волкова, Лидия Аветисян-[imdb]http://www.imdb.com/title/tt2794560/[/imdb] [kp]http://www.kinopoisk.ru/film/732770/[/kp]-
Продолжительность:
01:16:36
Качество видео: BDRip
Частота кадров : 23,976 кадра/сек
Видеокодек: MPEG4/ISO/AVC
Битрейт видео: ~3638 кб/с
Размер кадра: 1280х720
Аудиокодек: AC3 5.1
Битрейт аудио: 448 кб/с-

МедиаИнфо

Общее
Полное имя : D:\Vozvrashcheniye.Buratino.2013.BDRip.720p.Rus.avit.messer.mkv
Формат : Matroska
Версия формата : Version 2
Размер файла : 2,19 Гбайт
Продолжительность : 1 ч. 16 м.
Общий поток : 4086 Кбит/сек
Название фильма : Возвращение Буратино (2013)
Дата кодирования : UTC 2013-05-27 17:19:34
Программа кодирования : mkvmerge v5.8.0 ('No Sleep / Pillow') built on Sep 2 2012 15:37:04
Библиотека кодирования : libebml v1.2.3 + libmatroska v1.3.0
Видео
Идентификатор : 1
Формат : AVC
Формат/Информация : Advanced Video Codec
Профиль формата : High@L4.1
Параметр CABAC формата : Да
Параметр ReFrames формата : 8 кадров
Идентификатор кодека : V_MPEG4/ISO/AVC
Продолжительность : 1 ч. 16 м.
Битрейт : 3637 Кбит/сек
Ширина : 1280 пикселей
Высота : 720 пикселей
Соотношение сторон : 16:9
Режим частоты кадров : Постоянный
Частота кадров : 23,976 кадра/сек
Цветовое пространство : YUV
Субдискретизация насыщенности : 4:2:0
Битовая глубина : 8 бит
Тип развёртки : Прогрессивная
Бит/(Пиксели*Кадры) : 0.165
Размер потока : 1,90 Гбайт (87%)
Заголовок : Release by AlexKa
Библиотека кодирования : x264 core 133 r2334 a3ac64b
Язык : Russian
Default : Да
Forced : Нет
Аудио
Идентификатор : 2
Формат : AC-3
Формат/Информация : Audio Coding 3
Расширение режима : CM (complete main)
Параметр Endianness формата : Big
Идентификатор кодека : A_AC3
Продолжительность : 1 ч. 16 м.
Вид битрейта : Постоянный
Битрейт : 448 Кбит/сек
Каналы : 6 каналов
Расположение каналов : Front: L C R, Side: L R, LFE
Частота : 48,0 КГц
Битовая глубина : 16 бит
Метод сжатия : С потерями
Размер потока : 246 Мбайт (11%)
Заголовок : Rus
Язык : Russian
Default : Да
Forced : Нет
Меню
00:00:00.000 : :Chapter 01
00:04:10.416 : :Chapter 02
00:11:21.764 : :Chapter 03
00:19:11.275 : :Chapter 04
00:26:15.198 : :Chapter 05
00:32:20.021 : :Chapter 06
00:39:59.730 : :Chapter 07
00:47:29.763 : :Chapter 08
00:54:50.870 : :Chapter 09
01:02:52.143 : :Chapter 10
01:08:43.119 : :Chapter 11
01:13:06.715 : :Chapter 12
01:16:36.800 : :Chapter 13
-


Последний раз редактировалось: messer20080 (2013-10-30 14:45), всего редактировалось 3 раз(а)
[Профиль] [ЛС]

Катюня

Стаж: 7 года 7 месяца

Сообщений: 12

Создавать темы 28-Май-2013 21:18 (спустя 4 часа)

[Цитировать]

спасибо)
[Профиль] [ЛС]

bestcooki

Стаж: 6 года 11 месяца

Сообщений: 96

Создавать темы 27-Окт-2013 20:44 (спустя 4 месяца 29 дня)

[Цитировать]

Спасибо, глянем !
[Профиль] [ЛС]
Показать сообщения:    
Ответить на тему

Текущее время: 27-Сен 19:53

Часовой пояс: UTC + 3



Вы не можете начинать темы
Вы не можете отвечать на сообщения
Вы не можете редактировать свои сообщения
Вы не можете удалять свои сообщения
Вы не можете голосовать в опросах
Вы не можете прикреплять файлы к сообщениям
Вы не можете скачивать файлы