Тревожный вызов / The Call (Брэд Андерсон)(триллер, 2013) DVDRip

Ответить на тему
Статистика раздачи
Нет
   
 
Автор Сообщение

messer20080 ®

Стаж: 7 года 6 месяца

Сообщений: 1950

Создавать темы 04-Июн-2013 20:13

[Цитировать]

Тревожный вызов / The Call (2013) DVDRip- Русское название: Тревожный вызов
Оригинальное название: The Call
Год выпуска: 2013
Производство: США / Troika Pictures, WWE Studios, Emergency Films
Жанр: триллер
Перевод: Дублированный [лицензия]
Язык субтитров: Отсутствует
Режиссер: Брэд Андерсон
Актеры: Холли Берри, Эбигейл Бреслин, Моррис Честнат, Майкл Эклунд, Майкл Империоли, Жустина Мачадо, Хосе Суньига, Рома Маффиа, Эви Томпсон
Описание фильма:
Фильм расскажет про оператора колл-центра 911, куда поступает звонок от девочки-подростка, ставшей жертвой маньяка. Героине предстоит столкнуться со своими кошмарами, чтобы спасти девушку.-[kp]http://www.kinopoisk.ru/film/674295/[/kp] [imdb]http://www.imdb.com/title/tt1911644/?licb=0.48005483765155077[/imdb]-Дата мировой премьеры: 15 марта 2013
Дата российской премьеры: 15 марта 2013
Дата выхода DVD релиза: Май 2013, «Новый Диск», «New Dream media»
Продолжительность: 01:30:06
Качество видео: DVDRip
Видеокодек: Xvid
Битрейт видео: ~1713 Kb/s
Размер кадра: 704x368
Частота кадров : 25,000 кадров/сек
Аудиокодек: AC3 5.1
Битрейт аудио: 448 Kb/s-

МедиаИнфо

Общее
Полное имя : D:\The.Call.2013.D.DVDRip.avit.messer.avi
Формат : AVI
Формат/Информация : Audio Video Interleave
Размер файла : 1,37 Гбайт
Продолжительность : 1 ч. 30 м.
Общий поток : 2171 Кбит/сек
Название фильма : The.Call.2013.D.DVDRip
Жанр : Thriller
Программа кодирования : VirtualDubMod 1.5.10.3 | www.virtualdub-fr.org || (build 2550/release)
Формат оригинала/Имя : Movie
Видео
Идентификатор : 0
Формат : MPEG-4 Visual
Профиль формата : Advanced Simple@L5
Параметр BVOP формата : 1
Параметр QPel формата : Нет
Параметр GMC формата : Без точки перехода
Параметр матрицы формата : Выборочная
Идентификатор кодека : XVID
Идентификатор кодека/Подсказка : XviD
Продолжительность : 1 ч. 30 м.
Битрейт : 1714 Кбит/сек
Ширина : 704 пикселя
Высота : 368 пикселей
Соотношение сторон : 1,913
Частота кадров : 25,000 кадров/сек
Цветовое пространство : YUV
Субдискретизация насыщенности : 4:2:0
Битовая глубина : 8 бит
Тип развёртки : Прогрессивная
Метод сжатия : С потерями
Бит/(Пиксели*Кадры) : 0.265
Размер потока : 1,08 Гбайт (79%)
Библиотека кодирования : XviD 1.2.1 (UTC 2008-12-04)
Аудио
Идентификатор : 1
Формат : AC-3
Формат/Информация : Audio Coding 3
Расширение режима : CM (complete main)
Параметр Endianness формата : Big
Идентификатор кодека : 2000
Продолжительность : 1 ч. 30 м.
Вид битрейта : Постоянный
Битрейт : 448 Кбит/сек
Каналы : 6 каналов
Расположение каналов : Front: L C R, Side: L R, LFE
Частота : 48,0 КГц
Битовая глубина : 16 бит
Метод сжатия : С потерями
Размер потока : 289 Мбайт (21%)
Выравнивание : Разделение по промежуткам
Продолжительность промежутка : 40 мс. (1,00 видеокадр)
Время предзагрузки промежутка : 500 мс.
-


Последний раз редактировалось: messer20080 (2013-07-10 19:56), всего редактировалось 1 раз
[Профиль] [ЛС]

Катюня

Стаж: 7 года 7 месяца

Сообщений: 12

Создавать темы 04-Июн-2013 20:49 (спустя 35 минуты)

[Цитировать]

хороший фильм,,качайте не пожалеете
[Профиль] [ЛС]

Создавать темы 10-Авг-2013 18:55 (спустя 2 месяца 5 дня)

Топик был перенесен из форума DVD Rips в форум Зарубежное кино

messer20080
 

bestcooki

Стаж: 6 года 10 месяца

Сообщений: 96

Создавать темы 27-Окт-2013 20:43 (спустя 4 месяца 22 дня)

[Цитировать]

Обалдеть фильм !
[Профиль] [ЛС]
Показать сообщения:    
Ответить на тему

Текущее время: 26-Сен 14:24

Часовой пояс: UTC + 3



Вы не можете начинать темы
Вы не можете отвечать на сообщения
Вы не можете редактировать свои сообщения
Вы не можете удалять свои сообщения
Вы не можете голосовать в опросах
Вы не можете прикреплять файлы к сообщениям
Вы не можете скачивать файлы